BitTorrentTracker PerecTracker.org
BitTorrentTracker PerecTracker.org
    
Регистрация  ·  Вход
 
 · 
Забыли пароль?

  • Великая (Екатерина Великая) Серии: 1-12 из 12 (Игорь Зайцев) [2015, драма, исторический фильм, HDTVRip 720p]

    Ответить на тему
     
    Автор Сообщение

    rechyn

    Создавать темы 06-Ноя-2015 21:24

           

    [Цитировать]

    -Великая ( Екатерина Великая)-Производство: Россия / "Mars Media"
    Год выпуска: 2015
    Производство: Россия,"Марс Медиа"
    Жанр: драма, исторический фильм
    Продолжительность: 00:49:00
    Субтитры: нет
    Режиссер: Игорь Зайцев
    В ролях: Юлия Снигирь, Павел Деревянко, Сергей Шакуров, Наталья Суркова, Роман Мадянов, Марк Богатырёв, Светлана Фролова, Ольга Медынич, Павел Трубинер, Виктор Раков, Семён Стругачёв, Станислав Любшин, Виктор Тереля, Дмитрий Ульянов, Рихард Леперс, Илья Носков, Валерий Кухарешин, Владимир Матвеев, Эрнст Романов, Дмитрий Быковский-Ромашов, Иван Батарев, Светлана Смирнова-Кацагаджиева, Михаил Сидаш, Иван Шмаков, Леонид Ворон, Фитц ван Том, Сергей Горобченко и др.
    Описание:
    История становления личности самодержицы Екатерины Великой с момента ее приезда в Россию на правах невесты Петра III и до восхождения на Российский престол. Почти 20 лет дворцовых интриг, заговоров, борьбы за власть и личных драм.

    Дата премьеры в РФ: 5 ноября 2015
    Продолжительность: ~00:50:00 серия-Все раздачи сериала | Семпл-Качество: HDTVRip 720p
    Формат: MKV
    Видео кодек: H.264
    Аудио кодек: AC3
    Видео: AVC (x264), 1280x720, 25 fps, ~4600 kbps avg, 0.206 bit/pixel
    Аудио: 48 kHz, AC3 Dolby Digital, 2/0 (L,R) ch, ~192.00 kbps avg

    MediaInfo

    Format                      : Matroska
    Format version              : Version 2
    File size                   : 1.43 GiB
    Duration                    : 48mn 9s
    Overall bit rate            : 4 246 Kbps
    Encoded date                : UTC 2015-11-06 19:29:13
    Writing application         : mkvmerge v5.8.0 ('No Sleep / Pillow') built on Sep  2 2012 15:37:04
    Writing library             : libebml v1.2.3 + libmatroska v1.3.0
    Video
    ID                          : 1
    Format                      : AVC
    Format/Info                 : Advanced Video Codec
    Format profile              : High@L4.1
    Format settings, CABAC      : Yes
    Format settings, ReFrames   : 9 frames
    Codec ID                    : V_MPEG4/ISO/AVC
    Duration                    : 48mn 9s
    Bit rate                    : 4 052 Kbps
    Width                       : 1 280 pixels
    Height                      : 720 pixels
    Display aspect ratio        : 16:9
    Frame rate mode             : Constant
    Frame rate                  : 25.000 fps
    Color space                 : YUV
    Chroma subsampling          : 4:2:0
    Bit depth                   : 8 bits
    Scan type                   : Progressive
    Bits/(Pixel*Frame)          : 0.176
    Stream size                 : 1.34 GiB (93%)
    Writing library             : x264 core 146 r2538 121396c
    Encoding settings           : cabac=1 / ref=9 / deblock=1:-3:3 / analyse=0x3:0x113 / me=umh / subme=11 / psy=1 / psy_rd=1.00:0.20 / mixed_ref=1 / me_range=32 / chroma_me=1 / trellis=2 / 8x8dct=1 / cqm=0 / deadzone=21,11 / fast_pskip=0 / chroma_qp_offset=-3 / threads=12 / lookahead_threads=3 / sliced_threads=0 / nr=0 / decimate=0 / interlaced=0 / bluray_compat=0 / constrained_intra=0 / bframes=12 / b_pyramid=2 / b_adapt=2 / b_bias=0 / direct=1 / weightb=1 / open_gop=0 / weightp=2 / keyint=250 / keyint_min=25 / scenecut=40 / intra_refresh=0 / rc_lookahead=60 / rc=2pass / mbtree=0 / bitrate=4052 / ratetol=1.0 / qcomp=0.60 / qpmin=0 / qpmax=69 / qpstep=4 / cplxblur=20.0 / qblur=0.5 / vbv_maxrate=14000 / vbv_bufsize=14000 / nal_hrd=none / filler=0 / ip_ratio=1.40 / pb_ratio=1.30 / aq=3:0.80
    Default                     : Yes
    Forced                      : Yes
    Color range                 : Limited
    Color primaries             : BT.709
    Transfer characteristics    : BT.709
    Matrix coefficients         : BT.709
    Audio
    ID                          : 2
    Format                      : AC-3
    Format/Info                 : Audio Coding 3
    Mode extension              : CM (complete main)
    Format settings, Endianness : Big
    Codec ID                    : A_AC3
    Duration                    : 48mn 9s
    Bit rate mode               : Constant
    Bit rate                    : 192 Kbps
    Channel(s)                  : 2 channels
    Channel positions           : Front: L R
    Sampling rate               : 48.0 KHz
    Compression mode            : Lossy
    Stream size                 : 66.1 MiB (5%)
    Language                    : Russian
    Default                     : Yes
    Forced                      : Yes
    -

    Скриншоты

    Скачать .torrent

    Скачать торрент-файл бесплатно и на максимальной скорости!

    Как скачивать? · Что такое торрент? · Рейтинг и ограничения

    !ВНИМАНИЕ!
    Сайт не распространяет и не хранит электронные версии произведений, а занимается лишь лишь предоставлением доступа к создаваемому пользователями каталогу ссылок на торрент-файлы, которые содержат только списки хеш-сумм, убедительная просьба с жалобами обращаться напрямую к пользователю. Файлы для обмена на трекере предоставлены пользователями сайта, и администрация не несёт ответственности за их содержание. Просьба не заливать файлы, защищенные авторскими правами, а также файлы нелегального содержания!


    _________________


    Последний раз редактировалось: rechyn (2015-11-07 00:29), всего редактировалось 4 раз(а)
    [Профиль] [ЛС]
    Показать сообщения:    
    Ответить на тему

    Текущее время: Сегодня, в 12:53

    Часовой пояс: GMT + 2



    Вы не можете начинать темы
    Вы не можете отвечать на сообщения
    Вы не можете редактировать свои сообщения
    Вы не можете удалять свои сообщения
    Вы не можете голосовать в опросах
    Вы не можете прикреплять файлы к сообщениям
    Вы не можете скачивать файлы