BitTorrentTracker PerecTracker.org
BitTorrentTracker PerecTracker.org
    
Регистрация  ·  Вход
 
 · 
Забыли пароль?

  • [iPad] Переправа / The Crossing (Джон Ву / John Woo ) [2014, США, Драма, история, BDRip, SD (576p)] DUB + Original + sub (eng, chn)

    Ответить на тему
     
    Автор Сообщение

    rechyn

    Создавать темы 04-Ноя-2015 16:23

           

    [Цитировать]

    Переправа / The Crossing
    «Самое сложное время, чтобы любить»
    6.718 / 10 6.10 / 10
    -Год выпуска: 2014
    Страна: США
    Жанр: Драма, история
    Продолжительность: 02:08:14
    Перевод: Дублированный (iTunes)
    Оригинальная аудиодорожка: Есть
    Cубтитры: Английские, Китайские
    Режиссёр: Джон Ву
    Сценарий: Хуи-Линг Уэнг
    Продюсер: Тэжэньцэ Чан, Эргоу Конг, Минг Ли
    Оператор: Чжао Фэй
    Композитор: Таро Ивасиро
    Художник: Хорас Ма, Тонгсюнь Чен
    Монтаж: Исмаэль Гомес III
    В ролях: Такэси Канэсиро, Чжан Цзыи, Сон Хё Гю, Хуан Сяомин, Тун Давэй, Масами Нагасава, Вэй Бай, Шан Конг, Джек Као, Хитоми Куроки
    Бюджет: $65 000 000
    Сборы в России: $93 692
    Мировая премьера: 2 декабря 2014
    Премьера (РФ): 23 июля 2015, «АКМ»
    Описание: В центре повествования три пары, чьи судьбы драматически связаны с событиями, которые разворачиваются на фоне военных действий. Фильм основан на реальной трагедии потопления корабля «Тайпин», произошедшем в 1949 году и унесший жизни более 1500 пассажиров и экипажа.-Качество исходника: BDRemux
    Качество: BDRip
    Тип: SD (576p)
    Контейнер: M4V
    Видео: H.264, 1024x432, 2.40:1, 2 200 Kbps, 23.976 fps
    Аудио 1: Русский/Дублированный (iTunes), AAC / 2.0 / 157 Kbps / 48.0 KHz
    Аудио 2: Китайский/Оригинальная дорожка , AAC / 2.0 / 159 Kbps / 48.0 KHz
    Субтитры 1: Английские полные
    Субтитры 2: Китайские полные
    -

    iTunes Meta Tags

    Sort Name: Переправа
    XID: Apple:vendor_id:2014-778646
    contentID: 979701600
    Copyright: © 2014 Beijing Galloping Horse Film Co. Ltd, Le Vision Pictures Co. Ltd
    Screenwriters: Хуи-Линг Уэнг
    Producers: Тэжэньцэ Чан, Эргоу Конг, Минг Ли
    Director: Джон Ву
    Cast: Такэси Канэсиро, Чжан Цзыи, Сон Хё Гю, Хуан Сяомин, Тун Давэй, Масами Нагасава, Шан Конг, Джек Као, Хитоми Куроки, Боуи Лам
    Studio: Beijing Galloping Horse Film Co. Ltd, Le
    Rating: 4
    Long Description: В центре повествования три пары, чьи судьбы драматически связаны с событиями, которые разворачиваются на фоне военных действий. Фильм основан на реальной трагедии потопления корабля "Тайпин", произошедшем в 1949 году и унесший жизни более 1500 пассажиров и экипажа.
    Description: В центре повествования три пары, чьи судьбы драматически связаны с событиями, которые разворачиваются на фоне военных действий. Фильм основан на реальной трагедии потопления корабля "Тайпин", произошедшем в 1949 году и унесший жизни более 1500 пассажиров и экипажа.
    Release Date: 2014-12-02T08:00:00Z
    Genre: Драма
    Artist: Джон Ву
    Name: Переправа

    MediaInfo

    General
    Complete name                            : /Users/imac/HandBrake/The.Crossing.(SD).(pk).m4v
    Format                                   : MPEG-4
    Codec ID                                 : M4V
    File size                                : 2.26 GiB
    Duration                                 : 2h 8mn
    Overall bit rate mode                    : Variable
    Overall bit rate                         : 2 523 Kbps
    Movie name                               : Переправа
    Performer                                : Джон Ву
    Genre                                    : Драма
    Recorded date                            : UTC 2014-12-02 08:00:00
    Encoded date                             : UTC 2015-08-10 11:09:48
    Tagged date                              : UTC 2015-08-10 11:12:04
    Copyright                                : © 2014 Beijing Galloping Horse Film Co. Ltd, Le Vision Pictures Co. Ltd
    Cover                                    : Yes
    sonm                                     : Переправа
    desc                                     : В центре повествования три пары, чьи судьбы драматически связаны с событиями, которые разворачиваются на фоне военных действий. Фильм основан на реальной трагедии потопления корабля "Тайпин", произошедшем в 1949 году и унесший жизни более 1500 пассажиров и экипажа.
    ldes                                     : В центре повествования три пары, чьи судьбы драматически связаны с событиями, которые разворачиваются на фоне военных действий. Фильм основан на реальной трагедии потопления корабля "Тайпин", произошедшем в 1949 году и унесший жизни более 1500 пассажиров и экипажа.
    stik                                     : 9
    rtng                                     : 0
    cnID                                     : 979701600
    xid                                      : Apple:vendor_id:2014-778646
    iTunEXTC                                 : ru-movie|16+|375|
    iTunMOVI                                 : <?xml version=\"1.0\" encoding=\"UTF-8\"?> / <!DOCTYPE plist PUBLIC \"-//Apple//DTD PLIST 1.0//EN\" \"http://anonym.to/?http://www.apple.com/DTDs/PropertyList-1.0.dtd\"> / <plist version=\"1.0\"> / <dict> /  <key>cast</key> /  <array> /   <dict> /    <key>name</key> /    <string>Такэси Канэсиро</string> /   </dict> /   <dict> /    <key>name</key> /    <string>Чжан Цзыи</string> /   </dict> /   <dict> /    <key>name</key> /    <string>Сон Хё Гю</string> /   </dict> /   <dict> /    <key>name</key> /    <string>Хуан Сяомин</string> /   </dict> /   <dict> /    <key>name</key> /    <string>Тун Давэй</string> /   </dict> /   <dict> /    <key>name</key> /    <string>Масами Нагасава</string> /   </dict> /   <dict> /    <key>name</key> /    <string>Шан Конг</string> /   </dict> /   <dict> /    <key>name</key> /    <string>Джек Као</string> /   </dict> /   <dict> /    <key>name</key> /    <string>Хитоми Куроки</string> /   </dict> /   <dict> /    <key>name</key> /    <string>Боуи Лам</string> /   </dict> /  </array> /  <key>directors</key> /  <array> /   <dict> /    <key>name</key> /    <string>Джон Ву</string> /   </dict> /  </array> /  <key>producers</key> /  <array> /   <dict> /    <key>name</key> /    <string>Тэжэньцэ Чан</string> /   </dict> /   <dict> /    <key>name</key> /    <string>Эргоу Конг</string> /   </dict> /   <dict> /    <key>name</key> /    <string>Минг Ли</string> /   </dict> /  </array> /  <key>screenwriters</key> /  <array> /   <dict> /    <key>name</key> /    <string>Хуи-Линг Уэнг</string> /   </dict> /  </array> /  <key>studio</key> /  <string>Beijing Galloping Horse Film Co. Ltd, Le</string> / </dict> / </plist>
    Video #1
    ID                                       : 1
    Format                                   : AVC
    Format/Info                              : Advanced Video Codec
    Format profile                           : High@L3.1
    Format settings, CABAC                   : Yes
    Format settings, ReFrames                : 9 frames
    Codec ID                                 : avc1
    Codec ID/Info                            : Advanced Video Coding
    Duration                                 : 2h 8mn
    Bit rate mode                            : Variable
    Bit rate                                 : 2 200 Kbps
    Width                                    : 1 024 pixels
    Height                                   : 432 pixels
    Display aspect ratio                     : 2.40:1
    Frame rate mode                          : Variable
    Frame rate                               : 23.976 fps
    Minimum frame rate                       : 23.810 fps
    Maximum frame rate                       : 24.318 fps
    Color space                              : YUV
    Chroma subsampling                       : 4:2:0
    Bit depth                                : 8 bits
    Scan type                                : Progressive
    Bits/(Pixel*Frame)                       : 0.207
    Stream size                              : 1.97 GiB (87%)
    Writing library                          : x264 core 142 r2479 dd79a61
    Encoding settings                        : cabac=1 / ref=9 / deblock=1:0:0 / analyse=0x3:0x113 / me=umh / subme=9 / psy=1 / psy_rd=1.00:0.00 / mixed_ref=1 / me_range=32 / chroma_me=1 / trellis=1 / 8x8dct=1 / cqm=0 / deadzone=21,11 / fast_pskip=1 / chroma_qp_offset=-2 / threads=36 / lookahead_threads=3 / sliced_threads=0 / nr=0 / decimate=1 / interlaced=0 / bluray_compat=0 / constrained_intra=0 / bframes=6 / b_pyramid=2 / b_adapt=2 / b_bias=0 / direct=1 / weightb=1 / open_gop=0 / weightp=2 / keyint=240 / keyint_min=24 / scenecut=40 / intra_refresh=0 / rc_lookahead=40 / rc=2pass / mbtree=1 / bitrate=2200 / ratetol=1.0 / qcomp=0.60 / qpmin=0 / qpmax=69 / qpstep=4 / cplxblur=20.0 / qblur=0.5 / ip_ratio=1.40 / aq=1:1.00
    Language                                 : Chinese
    Encoded date                             : UTC 2015-08-10 11:09:48
    Tagged date                              : UTC 2015-08-10 11:09:54
    Color primaries                          : BT.709-5, BT.1361, IEC 61966-2-4, SMPTE RP177
    Transfer characteristics                 : BT.709-5, BT.1361
    Matrix coefficients                      : BT.709-5, BT.1361, IEC 61966-2-4 709, SMPTE RP177
    Video #2
    ID                                       : 7
    Format                                   : JPEG
    Codec ID                                 : jpeg
    Duration                                 : 2h 8mn
    Bit rate mode                            : Variable
    Bit rate                                 : 788 bps
    Width                                    : 640 pixels
    Height                                   : 270 pixels
    Display aspect ratio                     : 2.40:1
    Frame rate mode                          : Variable
    Frame rate                               : 0.002 fps
    Minimum frame rate                       : 0.001 fps
    Maximum frame rate                       : 0.003 fps
    Color space                              : YUV
    Chroma subsampling                       : 4:2:0
    Bit depth                                : 8 bits
    Compression mode                         : Lossy
    Bits/(Pixel*Frame)                       : 2.280
    Stream size                              : 721 KiB (0%)
    Language                                 : Chinese
    Encoded date                             : UTC 2015-08-10 11:10:26
    Tagged date                              : UTC 2015-08-10 11:10:26
    Audio #1
    ID                                       : 2
    Format                                   : AAC
    Format/Info                              : Advanced Audio Codec
    Format profile                           : LC
    Codec ID                                 : 40
    Duration                                 : 2h 8mn
    Bit rate mode                            : Variable
    Bit rate                                 : 157 Kbps
    Maximum bit rate                         : 239 Kbps
    Channel(s)                               : 2 channels
    Channel positions                        : Front: L R
    Sampling rate                            : 48.0 KHz
    Compression mode                         : Lossy
    Stream size                              : 144 MiB (6%)
    Language                                 : Russian
    Encoded date                             : UTC 2015-08-10 11:09:49
    Tagged date                              : UTC 2015-08-10 11:10:21
    Audio #2
    ID                                       : 3
    Format                                   : AAC
    Format/Info                              : Advanced Audio Codec
    Format profile                           : LC
    Codec ID                                 : 40
    Duration                                 : 2h 8mn
    Bit rate mode                            : Variable
    Bit rate                                 : 159 Kbps
    Maximum bit rate                         : 271 Kbps
    Channel(s)                               : 2 channels
    Channel positions                        : Front: L R
    Sampling rate                            : 48.0 KHz
    Compression mode                         : Lossy
    Stream size                              : 146 MiB (6%)
    Language                                 : Chinese
    Encoded date                             : UTC 2015-08-10 11:09:49
    Tagged date                              : UTC 2015-08-10 11:10:21
    Text #1
    ID                                       : 4
    Format                                   : Timed text
    Muxing mode                              : sbtl
    Codec ID                                 : tx3g
    Duration                                 : 2h 2mn
    Bit rate mode                            : Variable
    Bit rate                                 : 46 bps
    Stream size                              : 41.5 KiB (0%)
    Language                                 : English
    Encoded date                             : UTC 2015-08-10 11:09:49
    Tagged date                              : UTC 2015-08-10 11:10:20
    Text #2
    ID                                       : 5
    Format                                   : Timed text
    Muxing mode                              : sbtl
    Codec ID                                 : tx3g
    Duration                                 : 1h 59mn
    Bit rate mode                            : Variable
    Bit rate                                 : 38 bps
    Stream size                              : 33.6 KiB (0%)
    Language                                 : Chinese
    Encoded date                             : UTC 2015-08-10 11:09:49
    Tagged date                              : UTC 2015-08-10 11:10:20
    Text #3
    ID                                       : 6
    Format                                   : Apple text
    Codec ID                                 : text
    Duration                                 : 2h 8mn
    Bit rate mode                            : Variable
    Bit rate                                 : 0 bps
    Stream size                              : 351 Bytes (0%)
    Language                                 : English
    Encoded date                             : UTC 2015-08-10 11:10:21
    Tagged date                              : UTC 2015-08-10 11:10:21
    Menu
    00:00:00.000                             : Chapter 1
    00:11:49.584                             : Chapter 2
    00:19:25.373                             : Chapter 3
    00:26:32.633                             : Chapter 4
    00:36:24.474                             : Chapter 5
    00:43:05.500                             : Chapter 6
    00:54:03.991                             : Chapter 7
    01:03:53.788                             : Chapter 8
    01:11:12.477                             : Chapter 9
    01:21:18.415                             : Chapter 10
    01:26:56.962                             : Chapter 11
    01:33:14.172                             : Chapter 12
    01:41:22.994                             : Chapter 13
    01:50:31.124                             : Chapter 14
    02:02:11.449                             : Chapter 15

    x264 лог

    x264 [info]: frame I:1538  Avg QP:16.47  size: 72317
    x264 [info]: frame P:46100 Avg QP:19.99  size: 23582
    x264 [info]: frame B:136850 Avg QP:22.39  size:  6699
    x264 [info]: consecutive B-frames:  3.8%  5.1% 11.0% 24.3% 15.5% 35.8%  4.5%
    x264 [info]: mb I  I16..4: 10.8% 63.7% 25.5%
    x264 [info]: mb P  I16..4:  1.6% 11.5%  3.4%  P16..4: 36.8% 23.2% 15.1%  0.0%  0.0%    skip: 8.5%
    x264 [info]: mb B  I16..4:  0.2%  1.4%  0.6%  B16..8: 41.7%  9.4%  3.2%  direct: 4.2%  skip:39.2%  L0:43.3% L1:46.7% BI:10.0%
    x264 [info]: 8x8 transform intra:67.8% inter:69.0%
    x264 [info]: coded y,uvDC,uvAC intra: 86.2% 79.8% 47.6% inter: 26.2% 23.1% 2.5%
    x264 [info]: i16 v,h,dc,p: 27% 22%  7% 44%
    x264 [info]: i8 v,h,dc,ddl,ddr,vr,hd,vl,hu:  7%  7%  4% 11% 16% 14% 16% 12% 13%
    x264 [info]: i4 v,h,dc,ddl,ddr,vr,hd,vl,hu:  6%  7%  2% 10% 17% 15% 16% 12% 15%
    x264 [info]: i8c dc,h,v,p: 38% 25% 19% 18%
    x264 [info]: Weighted P-Frames: Y:7.7% UV:4.4%
    x264 [info]: ref P L0: 53.4% 15.7% 13.2%  5.3%  3.8%  2.9%  2.3%  1.5%  1.4%  0.3%  0.0%
    x264 [info]: ref B L0: 80.9%  9.3%  4.3%  2.0%  1.5%  1.1%  0.7%  0.3%
    x264 [info]: ref B L1: 93.5%  6.5%
    x264 [info]: kb/s:2199.04

    Скриншоты

    -

    Релиз подготовлен для просмотра на Apple TV, iPad, iPhone, iPod Touch.
    Для просмотра данного релиза на компьютере с ОС Windows рекомендуется использовать VLC media player
    Скачать .torrent

    Скачать торрент-файл бесплатно и на максимальной скорости!

    Как скачивать? · Что такое торрент? · Рейтинг и ограничения

    !ВНИМАНИЕ!
    Сайт не распространяет и не хранит электронные версии произведений, а занимается лишь лишь предоставлением доступа к создаваемому пользователями каталогу ссылок на торрент-файлы, которые содержат только списки хеш-сумм, убедительная просьба с жалобами обращаться напрямую к пользователю. Файлы для обмена на трекере предоставлены пользователями сайта, и администрация не несёт ответственности за их содержание. Просьба не заливать файлы, защищенные авторскими правами, а также файлы нелегального содержания!


    _________________
    [Профиль] [ЛС]
    Показать сообщения:    
    Ответить на тему

    Текущее время: Сегодня, в 20:11

    Часовой пояс: GMT + 2



    Вы не можете начинать темы
    Вы не можете отвечать на сообщения
    Вы не можете редактировать свои сообщения
    Вы не можете удалять свои сообщения
    Вы не можете голосовать в опросах
    Вы не можете прикреплять файлы к сообщениям
    Вы не можете скачивать файлы