BitTorrentTracker PerecTracker.org
BitTorrentTracker PerecTracker.org
    
Регистрация  ·  Вход
 
 · 
Забыли пароль?

  • Агенты А.Н.К.Л. / The Man from U.N.C.L.E. (Гай Ричи / Guy Ritchie ) [2015, США, Великобритания, Боевик, комедия, приключения, WEB-DLRip, SD (480p)] DUB + Original + sub (rus, eng)

    Ответить на тему
     
    Автор Сообщение

    rechyn

    Создавать темы 04-Ноя-2015 16:23

           

    [Цитировать]

    Агенты А.Н.К.Л. / The Man from U.N.C.L.E.
    «Герои высшего класса»
    8.016 / 10 7.50 / 10
    -Год выпуска: 2015
    Страна: США, Великобритания
    Жанр: Боевик, комедия, приключения
    Продолжительность: 01:56:26
    Перевод: Дублированный (iTunes)
    Оригинальная аудиодорожка: Есть
    Cубтитры: Русские форсированные, Русские, Английские
    Режиссёр: Гай Ричи
    Сценарий: Гай Ричи, Лайонел Уигрэм, Сэм Рольф
    Продюсер: Стив Кларк-Холл, Джон Дэвис, Гай Ричи
    Оператор: Джон Мэтисон
    Композитор: Дэниэл Пембертон
    Художник: Оливер Шолль, Дэвид Оллдей, Гай Брэдли
    Монтаж: Джеймс Херберт
    В ролях: Генри Кавилл, Арми Хаммер, Алисия Викандер, Элизабет Дебики, Хью Грант, Лука Кальвани, Сильвестр Грот, Джаред Харрис, Кристиан Беркель, Миша Кузнецов
    Бюджет: $75 000 000
    Сборы в США: $45 445 109
    Сборы в мире: + $55 100 000 = $100 545 109
    Сборы в России: $9 351 636
    Мировая премьера: 2 августа 2015
    Премьера (РФ): 13 августа 2015, «Каро-Премьер»
    Релиз на DVD: 17 декабря 2015, «CP Дистрибуция»
    Релиз на Blu-Ray: 17 декабря 2015, «CP Дистрибуция»
    Описание: Наполеон Соло — агент ЦРУ, на счету которого огромное количество успешно проведенных операций. Он считается одним из лучших секретных агентов во всем мире, и с ним может сравниться только один человек — самый молодой и перспективный агент КГБ, Илья Курякин. Их противостояние переросло в настоящую войну, в которой никто не собирается уступать. Однако обстоятельства складываются так, что непримиримые враги вынуждены стать напарниками. Это происходит после того как спецслужбы двух стран обнаруживают международную преступную организацию, которой удалось создать ядерную бомбу…-Качество исходника: WEB-DL 1080p
    Качество: WEB-DLRip
    Тип: SD (480p)
    Контейнер: M4V
    Видео: H.264, 852х352 анаморф 640x352, 2.40:1, 1 100 Kbps, 23.976 fps
    Аудио 1: Русский/Дублированный (iTunes), AAC / 2.0 / 157 Kbps / 48.0 KHz
    Аудио 2: Английский/Оригинальная дорожка (iTunes US), AAC / 2.0 / 157 Kbps / 48.0 KHz
    Субтитры 1: Русские форсированные
    Субтитры 2: Русские полные
    Субтитры 3: Английские полные
    -

    iTunes Meta Tags

    Sort Name: Man from U.N.C.L.E.
    XID: Apple:vendor_id:2015-518042
    contentID: 1024885267
    Copyright: © 2015 Warner Bros. Entertainment Inc. All Rights Reserved.
    Screenwriters: Гай Ричи, Лайонел Уигрэм, Сэм Рольф
    Producers: Стив Кларк-Холл, Джон Дэвис, Гай Ричи
    Director: Гай Ричи
    Cast: Генри Кавилл, Арми Хаммер, Алисия Викандер, Элизабет Дебики, Хью Грант, Лука Кальвани, Сильвестр Грот, Джаред Харрис, Кристиан Беркель, Миша Кузнецов, Антон Савенков, Дмитрий Кривощапов, Татьяна Ермилова, Мария Фортунатова, Всеволод Кузнецов
    Studio: Warner Bros.
    Rating: 4
    Long Description: Наполеон Соло - агент ЦРУ, на счету которого огромное количество успешно проведенных операций. Он считается одним из лучших секретных агентов во всем мире, и с ним может сравниться только один человек - самый молодой и перспективный агент КГБ, Илья Курякин. Их противостояние переросло в настоящую войну, в которой никто не собирается уступать. Однако обстоятельства складываются так, что непримиримые враги вынуждены стать напарниками. Это происходит после того как спецслужбы двух стран обнаруживают международную преступную организацию, которой удалось создать ядерную бомбу...
    Description: Наполеон Соло - агент ЦРУ, на счету которого огромное количество успешно проведенных операций. Он считается одним из лучших секретных агентов во всем мире, и с ним может сравниться только один человек - самый молодой и перспективный агент КГБ, Илья Курякин. Их противостояние переросло в настоящую войну, в которой никто не собирается уступать. Однако обстоятельства складываются так, что непримиримые враги вынуждены стать напарниками. Это происходит после того как спецслужбы двух стран обнаруживают международную преступную организацию, которой удалось создать ядерную бомбу...
    Release Date: 2015-08-02T08:00:00Z
    Genre: Action & Adventure
    Artist: Guy Ritchie
    Name: The Man from U.N.C.L.E.

    MediaInfo

    General
    Complete name : /Users/imac/HandBrake/The.Man.from.U.N.C.L.E.(480p).(pk).m4v
    Format : MPEG-4
    Codec ID : M4V
    File size : 1.16 GiB
    Duration : 1h 56mn
    Overall bit rate mode : Variable
    Overall bit rate : 1 421 Kbps
    Movie name : The Man from U.N.C.L.E.
    Performer : Guy Ritchie
    Director : Гай Ричи
    Actor : Генри Кавилл / Арми Хаммер / Алисия Викандер / Элизабет Дебики / Хью Грант / Лука Кальвани / Сильвестр Грот / Джаред Харрис / Кристиан Беркель / Миша Кузнецов / Антон Савенков / Дмитрий Кривощапов / Татьяна Ермилова / Мария Фортунатова / Всеволод Кузнецов
    Screenplay by : Гай Ричи / Лайонел Уигрэм / Сэм Рольф
    Producer : Стив Кларк-Холл / Джон Дэвис / Гай Ричи
    Production studio : Warner Bros.
    Genre : Action & Adventure
    ContentType : Short Film
    Description : Наполеон Соло - агент ЦРУ, на счету которого огромное количество успешно проведенных операций. Он считается одним из лучших секретных агентов во всем мире, и с ним может сравниться только один человек - самый молодой и перспективный агент КГБ, Илья Курякин. Их противостояние переросло в настоящую войну, в которой никто не собирается уступать. Однако обстоятельства складываются так, что непримиримые враги вынуждены стать напарниками. Это происходит после того как спецслужбы двух стран обнаруживают международную преступную организацию, которой удалось создать ядерную бомбу...
    Recorded date : UTC 2015-08-02 08:00:00
    Encoded date : UTC 2015-11-04 08:38:02
    Tagged date : UTC 2015-11-04 08:39:54
    Copyright : © 2015 Warner Bros. Entertainment Inc. All Rights Reserved.
    Cover : Yes
    Rating : None
    Title/Sort : Man from U.N.C.L.E.
    LongDescription : Наполеон Соло - агент ЦРУ, на счету которого огромное количество успешно проведенных операций. Он считается одним из лучших секретных агентов во всем мире, и с ним может сравниться только один человек - самый молодой и перспективный агент КГБ, Илья Курякин. Их противостояние переросло в настоящую войну, в которой никто не собирается уступать. Однако обстоятельства складываются так, что непримиримые враги вынуждены стать напарниками. Это происходит после того как спецслужбы двух стран обнаруживают международную преступную организацию, которой удалось создать ядерную бомбу...
    AppleStoreCatalogID : 1024885267
    Vendor : Apple:vendor_id:2015-518042
    ContentRating : mpaa|PG-13|300|
    Video #1
    ID : 1
    Format : AVC
    Format/Info : Advanced Video Codec
    Format profile : Baseline@L3
    Format settings, CABAC : No
    Format settings, ReFrames : 2 frames
    Codec ID : avc1
    Codec ID/Info : Advanced Video Coding
    Duration : 1h 56mn
    Bit rate : 1 100 Kbps
    Width : 640 pixels
    Height : 352 pixels
    Display aspect ratio : 2.40:1
    Frame rate mode : Variable
    Frame rate : 23.976 fps
    Minimum frame rate : 23.810 fps
    Maximum frame rate : 24.390 fps
    Color space : YUV
    Chroma subsampling : 4:2:0
    Bit depth : 8 bits
    Scan type : Progressive
    Bits/(Pixel*Frame) : 0.204
    Stream size : 916 MiB (77%)
    Title : Main Program
    Writing library : x264 core 142 r2479 dd79a61
    Encoding settings : cabac=0 / ref=2 / deblock=1:0:0 / analyse=0x1:0x111 / me=umh / subme=6 / psy=1 / psy_rd=1.00:0.00 / mixed_ref=1 / me_range=16 / chroma_me=1 / trellis=0 / 8x8dct=0 / cqm=0 / deadzone=21,11 / fast_pskip=1 / chroma_qp_offset=-2 / threads=36 / lookahead_threads=2 / sliced_threads=0 / nr=0 / decimate=1 / interlaced=0 / bluray_compat=0 / constrained_intra=0 / bframes=0 / weightp=0 / keyint=240 / keyint_min=24 / scenecut=40 / intra_refresh=0 / rc_lookahead=40 / rc=2pass / mbtree=1 / bitrate=1100 / ratetol=1.0 / qcomp=0.60 / qpmin=0 / qpmax=69 / qpstep=4 / cplxblur=20.0 / qblur=0.5 / vbv_maxrate=5000 / vbv_bufsize=5000 / nal_hrd=none / filler=0 / ip_ratio=1.40 / aq=1:1.00
    Language : English
    Encoded date : UTC 2015-11-04 08:38:02
    Tagged date : UTC 2015-11-04 08:38:06
    Color range : Limited
    Color primaries : BT.709
    Transfer characteristics : BT.709
    Matrix coefficients : BT.709
    Video #2
    ID : 8
    Format : JPEG
    Codec ID : jpeg
    Duration : 1h 56mn
    Bit rate mode : Variable
    Bit rate : 584 bps
    Width : 640 pixels
    Height : 264 pixels
    Display aspect ratio : 2.40:1
    Frame rate mode : Variable
    Frame rate : 0.002 fps
    Minimum frame rate : 0.001 fps
    Maximum frame rate : 0.003 fps
    Color space : YUV
    Chroma subsampling : 4:2:0
    Bit depth : 8 bits
    Compression mode : Lossy
    Bits/(Pixel*Frame) : 1.728
    Stream size : 428 KiB (0%)
    Title : Chapter Images
    Language : English
    Encoded date : UTC 2015-11-04 08:38:11
    Tagged date : UTC 2015-11-04 08:38:11
    Audio #1
    ID : 2
    Format : AAC
    Format/Info : Advanced Audio Codec
    Format profile : LC
    Codec ID : 40
    Duration : 1h 56mn
    Bit rate mode : Variable
    Bit rate : 157 Kbps
    Maximum bit rate : 248 Kbps
    Channel(s) : 2 channels
    Channel positions : Front: L R
    Sampling rate : 48.0 KHz
    Compression mode : Lossy
    Stream size : 130 MiB (11%)
    Title : Russian Stereo
    Language : Russian
    Encoded date : UTC 2015-11-04 08:38:02
    Tagged date : UTC 2015-11-04 08:38:09
    Audio #2
    ID : 3
    Format : AAC
    Format/Info : Advanced Audio Codec
    Format profile : LC
    Codec ID : 40
    Duration : 1h 56mn
    Bit rate mode : Variable
    Bit rate : 157 Kbps
    Maximum bit rate : 250 Kbps
    Channel(s) : 2 channels
    Channel positions : Front: L R
    Sampling rate : 48.0 KHz
    Compression mode : Lossy
    Stream size : 131 MiB (11%)
    Title : English Stereo
    Language : English
    Encoded date : UTC 2015-11-04 08:38:02
    Tagged date : UTC 2015-11-04 08:38:09
    Text #1
    ID : 4
    Format : Timed Text
    Muxing mode : sbtl
    Codec ID : tx3g
    Duration : 1h 50mn
    Bit rate mode : Variable
    Bit rate : 9 bps
    Stream size : 6.98 KiB (0%)
    Title : Russian forced
    Language : Russian
    Encoded date : UTC 2015-11-04 08:38:02
    Tagged date : UTC 2015-11-04 08:38:08
    Text #2
    ID : 5
    Format : Timed Text
    Muxing mode : sbtl
    Codec ID : tx3g
    Duration : 1h 50mn
    Bit rate mode : Variable
    Bit rate : 85 bps
    Stream size : 69.1 KiB (0%)
    Title : Russian full
    Language : Russian
    Encoded date : UTC 2015-11-04 08:38:02
    Tagged date : UTC 2015-11-04 08:38:08
    Text #3
    ID : 6
    Format : Timed Text
    Muxing mode : sbtl
    Codec ID : tx3g
    Duration : 1h 49mn
    Bit rate mode : Variable
    Bit rate : 52 bps
    Stream size : 41.4 KiB (0%)
    Title : English full
    Language : English
    Encoded date : UTC 2015-11-04 08:38:02
    Tagged date : UTC 2015-11-04 08:38:08
    Menu #1
    00:00:00.000 : 1
    00:15:18.000 : 2
    00:23:10.000 : 3
    00:32:08.000 : 4
    00:40:34.000 : 5
    00:49:06.000 : 6
    00:59:22.000 : 7
    01:08:51.000 : 8
    01:20:27.000 : 9
    01:29:46.000 : 10
    01:43:20.000 : 11
    01:49:22.000 : 12
    Menu #2
    ID : 7
    Codec ID : text
    Duration : 1h 56mn
    Language : English
    Encoded date : UTC 2015-11-04 08:38:09
    Tagged date : UTC 2015-11-04 08:38:09
    00:00:00.000 : 1
    00:15:18.000 : 2
    00:23:10.000 : 3
    00:32:08.000 : 4
    00:40:34.000 : 5
    00:49:06.000 : 6
    00:59:22.000 : 7
    01:08:51.000 : 8
    01:20:27.000 : 9
    01:29:46.000 : 10
    01:43:20.000 : 11
    01:49:22.000 : 12
    Bit rate mode : VBR

    x264 лог

    x264 [info]: frame I:4072  Avg QP:15.97  size: 20985
    x264 [info]: frame P:163445 Avg QP:18.26  size:  5354
    x264 [info]: mb I  I16..4: 25.0%  0.0% 75.0%
    x264 [info]: mb P  I16..4:  1.3%  0.0%  2.6%  P16..4: 45.6% 20.1%  8.0%  0.0%  0.0%    skip:22.4%
    x264 [info]: coded y,uvDC,uvAC intra: 66.1% 73.2% 48.1% inter: 21.3% 17.8% 4.5%
    x264 [info]: i16 v,h,dc,p: 44% 17%  9% 30%
    x264 [info]: i4 v,h,dc,ddl,ddr,vr,hd,vl,hu: 28% 17% 15%  6%  8%  8%  7%  7%  5%
    x264 [info]: i8c dc,h,v,p: 52% 18% 23%  7%
    x264 [info]: ref P L0: 71.7% 28.3%
    x264 [info]: kb/s:1099.88

    Скриншоты

    -

    Релиз подготовлен для просмотра на Apple TV, iPad, iPhone, iPod Touch.
    Для просмотра данного релиза на компьютере с ОС Windows рекомендуется использовать VLC media player
    Скачать .torrent

    Скачать торрент-файл бесплатно и на максимальной скорости!

    Как скачивать? · Что такое торрент? · Рейтинг и ограничения

    !ВНИМАНИЕ!
    Сайт не распространяет и не хранит электронные версии произведений, а занимается лишь лишь предоставлением доступа к создаваемому пользователями каталогу ссылок на торрент-файлы, которые содержат только списки хеш-сумм, убедительная просьба с жалобами обращаться напрямую к пользователю. Файлы для обмена на трекере предоставлены пользователями сайта, и администрация не несёт ответственности за их содержание. Просьба не заливать файлы, защищенные авторскими правами, а также файлы нелегального содержания!


    _________________
    [Профиль] [ЛС]
    Показать сообщения:    
    Ответить на тему

    Текущее время: Сегодня, в 05:59

    Часовой пояс: GMT + 2



    Вы не можете начинать темы
    Вы не можете отвечать на сообщения
    Вы не можете редактировать свои сообщения
    Вы не можете удалять свои сообщения
    Вы не можете голосовать в опросах
    Вы не можете прикреплять файлы к сообщениям
    Вы не можете скачивать файлы