BitTorrentTracker PerecTracker.org
BitTorrentTracker PerecTracker.org
    
Регистрация  ·  Вход
 
 · 
Забыли пароль?

  • За что? / Za co? (Ежи Кавалерович) [Россия, Польша, 1995, экранизация, драма, DVB-AVC]

    Ответить на тему
     
    Автор Сообщение

    rechyn

    Создавать темы 04-Ноя-2015 03:47

           

    [Цитировать]

    За что? / Za co?
    Страна: Россия , Польша
    Производство: Киностудия "12А" (Россия), КАDR (Польша)
    Жанр: экранизация, драма
    Год выпуска: 1995
    Продолжительность: 01:43:32
    Режиссёр: Ежи Кавалерович
    Сценаристы: Валерий Пендраковский, Павел Финн, Александр Бондарев, Ежи Кавалерович
    Оператор: Михаил Агранович
    Композитор: Валерий Мягких
    Художники: Борис Бланк, Магдалена Дипонт-Левандовская, Владимир Постернак
    Продюсеры: Александр Михайлов, Вячеслав Врачев (иcп.)
    В ролях: Магдалена Вуйцик, Артур Жмиевский, Эмилия Краковская, Дорота Садовска, Степан Старчиков, Алексей Булдаков, Анатолий Кузнецов, Наталья Аринбасарова, Петр Кононыхин, Валерий Носик, Хенрик Таляр, Дариуш Бискупский, Александр Лазарев старший, Агнешка Вагнер, Роберт Розмус, Валерий Беляев, Эдвард Сосна, Виталий Черменёв, Максим Борисов, Софья Тимченко, Ваня Титов, Тимур Малышев, Пётр Вавжиньчак, Елена Коллегова, Пётр Гонсовский, Анджей Шенайх
    Описание: По одноименной неоконченной повести Льва Толстого.
    Офицер Юзеф Мигурский за участие в польском восстании 1831 года против царской России разжалован в солдаты и сослан на службу в форт за Каспием. Его возлюбленная Альбина, оставив богатства и семью, следует за ним...
    Благодарность: исходник для данной раздачи, записан с цифрового наземного канала, т.е. DVB-Т, любезно предоставлен Bartimeyse .
    За что ему большое спасибо!
    Запись потока *.ts с наземного цифрового телеканала "Беларусь 3", ремукс в *.mkv программой VideoReDo.
    Релиз:

    Мои раздачи:

    Мои раздачи

    Все
    http://RUtracker.org/forum/tracker.php?rid=9778909
    http://BY.perectracker.org/forum/tracker.php?rid=9778909
    http://UA.perectracker.org/forum/tracker.php?rid=9778909
    Избранные:
    1) Я - гражданин Республики Беларусь. Архитектурные и художественные шедевры Беларуси [2008, RUS]
    http://perectracker.org/viewtopic.php?t=3516744
    2) Государственная политика [Документальный цикл, TVRip, 2010]
    http://perectracker.org/viewtopic.php?t=3321565
    3) Беларусь. Взгляд извне [2005, документальный сериал, TVRip]
    http://perectracker.org/viewtopic.php?t=3543820
    4) Трилогия: Белая Русь, Чарующая Беларусь, Путешествие из Беларуси в Россию [2010-2011 г., Документальный, DVD5]
    http://perectracker.org/viewtopic.php?t=3442053
    5) Правда о западной «демократии» и белорусском «тоталитаризме» [Беларусь 2011, Документальное расследование]
    http://perectracker.org/viewtopic.php?t=3523672
    6) Задорнов в Беларуси. Беларусь - это значительно улучшенный Советский Союз [2010-2011 г., Интервью, TVRip]
    http://perectracker.org/viewtopic.php?t=3512134
    7) [Журнал] Экономика Беларуси (16 номеров) [2007-2010, PDF, RUS]
    http://perectracker.org/viewtopic.php?t=3309120
    8) Армия - Журнал Вооруженных сил республики Беларусь. (81 номер) [1996-2010, PDF, RUS]
    http://perectracker.org/viewtopic.php?t=3277264
    9) Страна Моя, Беларусь! Заставка телеканал СТВ Минск. Белоруссия, Мир, Несвиж и др. zweizwei [2010, рекламный ролик, заставка, HD-Video]
    http://perectracker.org/viewtopic.php?t=3480687
    10) Радзивиллы Несвижские владения Костел Божьего тела [2011 г., хроникально-документальный, TVRip]
    http://perectracker.org/viewtopic.php?t=3410980
    11) Полёты на воздушном шаре. Новогрудок. Беларусь. zweizwei / Belarus Novogrudok [2010, HD-Video]
    http://perectracker.org/viewtopic.php?t=3380821
    12) Полёты на воздушном шаре / Беларусь, Белоруссия, Гродно, Святск. zweizwei [2009, HD-Video]
    http://perectracker.org/viewtopic.php?t=3380756
    13) Вид Гродно с высоты полета (Беларусь)/Выгляд Гродна з вышыні палёту паветранага шара [222]
    http://perectracker.org/viewtopic.php?t=3369388
    14) Анархия Прямое действие. Беларусь [2011, документальный фильм, TVRip]
    http://perectracker.org/viewtopic.php?t=3485756
    15) Психология девиации (АТН, Беларусь ТВ) [2010, Информационно-аналитические и общественно-политическиепередачи, TVRip]
    http://perectracker.org/viewtopic.php?t=3542424
    16) Боль моя - Чернобыль (Беларусь, Коллектив Беларусь ТВ) [2011, Документлный, TVRip]
    http://perectracker.org/viewtopic.php?t=3546253
    17) Попов хутор и его обитатели Русс ТВ [2011, Документальный, DVD5]
    http://perectracker.org/viewtopic.php?t=3514286
    и сотни других...
    Семпл: http://rusfolder.com/44404506
    Качество видео: DVB
    Формат видео: MKV
    Видео: MPEG4 Video (H264) 720x576 (49:36) 25fps, 2 212 Kbps
    Аудио: MP2, 256 kbps, 2 channels, 48 kHz

    MediaInfo

    GeneralUnique ID : 147445301895369990057434322291622321572 (0x6EECEEA52E263DA66206C17953329DA4)Complete name : D:\Новая земля 2\Художественные фильмы\За что (1995)\За что (1995).mkvFormat : MatroskaFormat version : Version 2File size : 1.82 GiBDuration : 1h 43mnOverall bit rate : 2 518 KbpsWriting application : Lavf52.64.2Writing library : Lavf52.64.2
    VideoID : 1Format : AVCFormat/Info : Advanced Video CodecFormat profile : Main@L3.0Format settings, CABAC : YesFormat settings, ReFrames : 4 framesCodec ID : V_MPEG4/ISO/AVCDuration : 1h 43mnBit rate : 2 212 KbpsWidth : 720 pixelsHeight : 576 pixelsDisplay aspect ratio : 4:3Original display aspect ratio : 4:3Frame rate mode : ConstantFrame rate : 25.000 fpsStandard : PALColor space : YUVChroma subsampling : 4:2:0Bit depth : 8 bitsScan type : MBAFFScan order : Top Field FirstBits/(Pixel*Frame) : 0.213Stream size : 1.60 GiB (88%)Default : YesForced : NoColor primaries : BT.601 PALTransfer characteristics : BT.470 System B, BT.470 System GMatrix coefficients : BT.601Color range : Limited
    AudioID : 2Format : MPEG AudioFormat version : Version 1Format profile : Layer 2Codec ID : A_MPEG/L2Codec ID/Hint : MP2Duration : 1h 43mnBit rate mode : ConstantBit rate : 256 KbpsChannel(s) : 2 channelsSampling rate : 48.0 KHzCompression mode : LossyStream size : 190 MiB (10%)Language : EnglishDefault : YesForced : No

    Скриншоты

    Скачать .torrent

    Скачать торрент-файл бесплатно и на максимальной скорости!

    Как скачивать? · Что такое торрент? · Рейтинг и ограничения

    !ВНИМАНИЕ!
    Сайт не распространяет и не хранит электронные версии произведений, а занимается лишь лишь предоставлением доступа к создаваемому пользователями каталогу ссылок на торрент-файлы, которые содержат только списки хеш-сумм, убедительная просьба с жалобами обращаться напрямую к пользователю. Файлы для обмена на трекере предоставлены пользователями сайта, и администрация не несёт ответственности за их содержание. Просьба не заливать файлы, защищенные авторскими правами, а также файлы нелегального содержания!


    _________________
    [Профиль] [ЛС]
    Показать сообщения:    
    Ответить на тему

    Текущее время: Сегодня, в 07:11

    Часовой пояс: GMT + 2



    Вы не можете начинать темы
    Вы не можете отвечать на сообщения
    Вы не можете редактировать свои сообщения
    Вы не можете удалять свои сообщения
    Вы не можете голосовать в опросах
    Вы не можете прикреплять файлы к сообщениям
    Вы не можете скачивать файлы