BitTorrentTracker PerecTracker.org
BitTorrentTracker PerecTracker.org
    
Регистрация  ·  Вход
 
 · 
Забыли пароль?

  • Первые испытания (Владимир Корш-Саблин) [1960-1961, кинороман, экранизация, DVB-AVC]

    Ответить на тему
     
    Автор Сообщение

    Light

    Создавать темы 03-Ноя-2015 19:32

           

    [Цитировать]

    Первые испытания (2 серии)
    Страна: СССР
    Производство: Беларусьфильм
    Жанр: кинороман, экранизация
    Год выпуска: 1960-1961
    Продолжительность: 01:28:11 + 01:25:21
    Режиссёр: Владимир Корш-Саблин
    Сценаристы: Аркадий Кулешов, Максим Лужанин
    Оператор: Андрей Булинский
    Композитор: Евгений Глебов
    Художники: Владимир Белоусов, Юрий Булычев
    В ролях: Эдуард Изотов, Наталья Кустинская, Елена Корнилова, Иван Шатило, Юрий Дедович, Игорь Сретенский, Николай Ерёменко старший, Александр Кистов, Глеб Глебов, Виктор Тарасов, Александр Ильинский, Михаил Названов, Анатолий Кацинский, Павел Молчанов, Геннадий Мичурин, Фёдор Шмаков, Владимир Балашов, Владимир Соловьёв, Степан Бирилло, Геннадий Некрасов, Борис Кудрявцев, Анна Заржицкая, Кузьма Кулаков, Борис Владомирский, Татьяна Барышева, Евгений Карнаухов, Владимир Кудревич, Владимир Дедюшко, Стефания Станюта, Василий Кравцов, Виталий Полицеймако, Сергей Карнович-Валуа, Константин Адашевский, Василий Максимов, Галина Рогачева, Гена Лапченко
    Описание: Историко-революционный кинороман по мотивам трилогии «На росстанях» Якуба Коласа.
    Действие фильма начинается во время революции 1905 года. Молодой учитель Андрей Лобанович приезжает работать в белорусское село Тельшино. Выполняя обещание, данное другу, погибшему от руки царского сыщика, Лобанович вступает в фиктивный брак с революционеркой Ольгой Андросовой. Дочь лесничего Ядвися, которую любит Андрей, соглашается ждать его развода, но просит, чтобы Ольга никогда не появлялась в селе. Однако, по поручению подпольного комитета Ольга приезжает в Тельшино, чтобы передать Лобановичу документы, подтверждающие права крестьян на землю, отнятую помещиком. Ядвися узнаёт о приезде Ольги и, оскорблённая, соглашается выйти замуж за другого. Андрей передаёт крестьянам документы, уговорив их не действовать силой, а идти к помещику с петицией. Тот вызывает из города казаков и безжалостно расправляется с крестьянами. Крестьяне поднимают восстание...
    Доп. информация:
    Релиз:

    За предоставленный постер спасибо johnnyleo
    Запись потока *.ts с наземного цифрового телеканала "Беларусь 3", ремукс в *.mkv программой VideoReDo.
    Сэмпл: http://rusfolder.com/44403305
    качество: DVB-AVC
    формат: MKV
    Видео: MPEG4 Video (H264) 720x576 (49:36) 25fps, 2 205 Kbps
    Аудио: MPEG Audio 48000Hz stereo 256kbps

    MediaInfo 1 серии

    GeneralUnique ID : 314401259536276484112035467762674575348 (0xEC877AE334E49DA975895270397227F4)Complete name : D:\Новая земля 2\Художественные фильмы\Первые испытания (1960-1961)\Первые испытания (1960-1961)\Первые испытания 01 (1960).mkvFormat : MatroskaFormat version : Version 2File size : 1.55 GiBDuration : 1h 28mnOverall bit rate : 2 509 KbpsWriting application : Lavf52.64.2Writing library : Lavf52.64.2
    VideoID : 1Format : AVCFormat/Info : Advanced Video CodecFormat profile : Main@L3.0Format settings, CABAC : YesFormat settings, ReFrames : 4 framesFormat settings, GOP : M=4, N=24Codec ID : V_MPEG4/ISO/AVCDuration : 1h 28mnBit rate : 2 203 KbpsWidth : 720 pixelsHeight : 576 pixelsDisplay aspect ratio : 4:3Original display aspect ratio : 4:3Frame rate mode : ConstantFrame rate : 25.000 fpsStandard : PALColor space : YUVChroma subsampling : 4:2:0Bit depth : 8 bitsScan type : MBAFFScan order : Top Field FirstBits/(Pixel*Frame) : 0.212Stream size : 1.36 GiB (88%)Default : YesForced : NoColor primaries : BT.601 PALTransfer characteristics : BT.470 System B, BT.470 System GMatrix coefficients : BT.601Color range : Limited
    AudioID : 2Format : MPEG AudioFormat version : Version 1Format profile : Layer 2Codec ID : A_MPEG/L2Codec ID/Hint : MP2Duration : 1h 28mnBit rate mode : ConstantBit rate : 256 KbpsChannel(s) : 2 channelsSampling rate : 48.0 KHzCompression mode : LossyStream size : 161 MiB (10%)Language : EnglishDefault : YesForced : No

    MediaInfo 2 серии

    GeneralUnique ID : 142743387687513894469809844336001083320 (0x6B63606068640D41980E9EEA18A8E7B8)Complete name : D:\Новая земля 2\Художественные фильмы\Первые испытания (1960-1961)\Первые испытания (1960-1961)\Первые испытания 02 (1961).mkvFormat : MatroskaFormat version : Version 2File size : 1.50 GiBDuration : 1h 25mnOverall bit rate : 2 511 KbpsWriting application : Lavf52.64.2Writing library : Lavf52.64.2
    VideoID : 1Format : AVCFormat/Info : Advanced Video CodecFormat profile : Main@L3.0Format settings, CABAC : YesFormat settings, ReFrames : 4 framesFormat settings, GOP : M=4, N=24Codec ID : V_MPEG4/ISO/AVCDuration : 1h 25mnBit rate : 2 205 KbpsWidth : 720 pixelsHeight : 576 pixelsDisplay aspect ratio : 4:3Original display aspect ratio : 4:3Frame rate mode : ConstantFrame rate : 25.000 fpsStandard : PALColor space : YUVChroma subsampling : 4:2:0Bit depth : 8 bitsScan type : MBAFFScan order : Top Field FirstBits/(Pixel*Frame) : 0.213Stream size : 1.31 GiB (88%)Default : YesForced : NoColor primaries : BT.601 PALTransfer characteristics : BT.470 System B, BT.470 System GMatrix coefficients : BT.601Color range : Limited
    AudioID : 2Format : MPEG AudioFormat version : Version 1Format profile : Layer 2Codec ID : A_MPEG/L2Codec ID/Hint : MP2Duration : 1h 25mnBit rate mode : ConstantBit rate : 256 KbpsChannel(s) : 2 channelsSampling rate : 48.0 KHzCompression mode : LossyStream size : 156 MiB (10%)Language : EnglishDefault : YesForced : No

    Скриншоты

    Скачать .torrent

    Скачать торрент-файл бесплатно и на максимальной скорости!

    Как скачивать? · Что такое торрент? · Рейтинг и ограничения

    !ВНИМАНИЕ!
    Сайт не распространяет и не хранит электронные версии произведений, а занимается лишь лишь предоставлением доступа к создаваемому пользователями каталогу ссылок на торрент-файлы, которые содержат только списки хеш-сумм, убедительная просьба с жалобами обращаться напрямую к пользователю. Файлы для обмена на трекере предоставлены пользователями сайта, и администрация не несёт ответственности за их содержание. Просьба не заливать файлы, защищенные авторскими правами, а также файлы нелегального содержания!


    _________________
    [Профиль] [ЛС]
    Показать сообщения:    
    Ответить на тему

    Текущее время: Сегодня, в 06:10

    Часовой пояс: GMT + 2



    Вы не можете начинать темы
    Вы не можете отвечать на сообщения
    Вы не можете редактировать свои сообщения
    Вы не можете удалять свои сообщения
    Вы не можете голосовать в опросах
    Вы не можете прикреплять файлы к сообщениям
    Вы не можете скачивать файлы