BitTorrentTracker PerecTracker.org
BitTorrentTracker PerecTracker.org
    
Регистрация  ·  Вход
 
 · 
Забыли пароль?

  • Мальчики с Востока / Eastern Boys (Робин Кампилло / Robin Campillo) [2013, Франция, Драма, SATRip] VO + Sub Ger

    Ответить на тему
     
    Автор Сообщение

    Light

    Создавать темы 03-Ноя-2015 19:32

           

    [Цитировать]

    Мальчики с Востока / Eastern Boys
    Страна: Франция
    Жанр: Драма
    Год выпуска: 2013
    Продолжительность: 02:03:37
    Перевод: Одноголосый закадровый
    Cубтитры: немецкие
    Режиссер: Робин Кампилло / Robin Campillo
    В ролях: Оливье Рабурден / Даниэль, Кирилл Емельянов / Марек ("Сволочи", "Кадетство", "Ералаш" и др.), Даниил Воробьев / Босс ("Солдаты" и др.), Эдеа Дарк, Камила Шакирова, Бека Маркозашвили, Бислан Якхяев, Мохамед Дукузов, Аитор Бургадэ и др.
    Описание: Они приезжают со всей Восточной Европы: из России, из Румынии, из Чечни. Мальчики с востока... им не больше 25-ти. Они бродят в окрестностях парижского Северного вокзала. Возможно, эти молодые люди занимаются проституцией, но по их внешнему виду невозможно сказать это наверняка. Пятидесятилетний парижанин положил глаз на одного из них. Он собирает волю в кулак, "подкатывает" к парню и приглашает к себе домой. Однако, когда на следующий день раздается звонок в дверь, мужчина не подозревает, что циничные молодые грабители выбрали его в качестве жертвы...
    Доп. информация: Премьера картины состоялась на 70-м Международном кинофестивале в Венеции, на котором она была удостоена главного приза программы «Горизонты»

    Качество видео: SATRip
    Формат видео: AVI
    Видео: 720x304 (2.37:1), 25 fps, XviD build 50 ~947 kbps avg, 0.17 bit/pixel
    Аудио: 44.100 kHz, MPEG Layer 3, 2 ch, ~128.00 kbps avg
    Формат субтитров: hardsub (неотключаемые)

    MediaInfo

    Общее
    Полное имя : D:\TORRENT\Eastern.Boys.2013.SATRip.avi
    Формат : AVI
    Формат/Информация : Audio Video Interleave
    Размер файла : 962 Мбайт
    Продолжительность : 2 ч. 3 м.
    Режим общего битрейта : Переменный
    Общий поток : 1088 Кбит/сек
    Программа кодирования : VirtualDubMod 1.5.10.3 | www.virtualdub-fr.org || (build 2550/release)
    Библиотека кодирования : VirtualDubMod build 2550/release
    Видео
    Идентификатор : 0
    Формат : MPEG-4 Visual
    Профиль формата : Advanced Simple@L5
    Параметр BVOP формата : 2
    Параметр QPel формата : Нет
    Параметр GMC формата : Без точки перехода
    Параметр матрицы формата : Default (MPEG)
    Идентификатор кодека : XVID
    Идентификатор кодека/Подсказка : XviD
    Продолжительность : 2 ч. 3 м.
    Битрейт : 948 Кбит/сек
    Ширина : 720 пикселей
    Высота : 304 пикселя
    Соотношение сторон : 2,35:1
    Частота кадров : 25,000 кадров/сек
    Цветовое пространство : YUV
    Субдискретизация насыщенности : 4:2:0
    Битовая глубина : 8 бит
    Тип развёртки : Прогрессивная
    Метод сжатия : С потерями
    Бит/(Пиксели*Кадры) : 0.173
    Размер потока : 838 Мбайт (87%)
    Библиотека кодирования : XviD 1.2.1 (UTC 2008-12-04)
    Аудио
    Идентификатор : 1
    Формат : MPEG Audio
    Версия формата : Version 1
    Профиль формата : Layer 3
    Режим : Joint stereo
    Расширение режима : MS Stereo
    Идентификатор кодека : 55
    Идентификатор кодека/Подсказка : MP3
    Продолжительность : 2 ч. 3 м.
    Вид битрейта : Переменный
    Битрейт : 128 Кбит/сек
    Каналы : 2 канала
    Частота : 44,1 КГц
    Метод сжатия : С потерями
    Размер потока : 113 Мбайт (12%)
    Выравнивание : Соединение по промежуткам
    Продолжительность промежутка : 26 мс. (0,65 видеокадр)
    Время предзагрузки промежутка : 502 мс.
    Библиотека кодирования : LAME3.98.4

    Скриншот c названием фильма

    Скриншоты

    Скачать .torrent

    Скачать торрент-файл бесплатно и на максимальной скорости!

    Как скачивать? · Что такое торрент? · Рейтинг и ограничения

    !ВНИМАНИЕ!
    Сайт не распространяет и не хранит электронные версии произведений, а занимается лишь лишь предоставлением доступа к создаваемому пользователями каталогу ссылок на торрент-файлы, которые содержат только списки хеш-сумм, убедительная просьба с жалобами обращаться напрямую к пользователю. Файлы для обмена на трекере предоставлены пользователями сайта, и администрация не несёт ответственности за их содержание. Просьба не заливать файлы, защищенные авторскими правами, а также файлы нелегального содержания!


    _________________
    [Профиль] [ЛС]
    Показать сообщения:    
    Ответить на тему

    Текущее время: Сегодня, в 13:52

    Часовой пояс: GMT + 2



    Вы не можете начинать темы
    Вы не можете отвечать на сообщения
    Вы не можете редактировать свои сообщения
    Вы не можете удалять свои сообщения
    Вы не можете голосовать в опросах
    Вы не можете прикреплять файлы к сообщениям
    Вы не можете скачивать файлы