BitTorrentTracker PerecTracker.org
BitTorrentTracker PerecTracker.org
    
Регистрация  ·  Вход
 
 · 
Забыли пароль?

  • Дела и люди (Александр Мачерет) [1932, Драма, SATRip-AVC]

    Ответить на тему
     
    Автор Сообщение

    Light

    Создавать темы 03-Ноя-2015 19:32

           

    [Цитировать]

    -Дела и люди-Жанр: Драма
    Год выпуска: 1932
    Продолжительность: 01:28:44-Режиссёр: Александр Мачерет-В ролях: Николай Охлопков, Виктор Станицын, Александр Гейрот, Софья Яковлева, Василий Ковригин, Сергей Поляков (V), Фёдор Курихин, Павел Оленев-Описание: На одно из крупных строительств первой пятилетки приезжает американский специалист. Встав во главе бригады, он добивается высоких показателей. Но, освоив новую технологию, рабочие участка Захарова в следующем соревновании с американцем одерживают победу.-Доп. информация:
    Фильм восстановлен сотрудниками ГТРК "Культура" в 2015 году.
    Сценарист: Александр Мачерет
    Оператор: Александр Гальперин
    Композиторы: Николай Крюков (II), Виссарион Шебалин, Сергей Германов
    Художник: Алексей Уткин-Семпл: https://yadi.sk/i/YJjTWNOlkCixy-Качество видео: SATRip-AVC
    Формат видео: MKV
    Видео кодек: H.264
    Аудио кодек: AC3
    Видео: 704@763x568 анаморф (1,343:1), 25 fps, ~2193 kbps
    Аудио: 48 kHz, AC3 Dolby Digital, 2/0 (L,R) ch, ~192 kbps
    MediaInfo

    Лог

    raw [info]: 704x568p 989:913 @ 25/1 fps (cfr)
    x264 [info]: using SAR=989/913
    x264 [info]: using cpu capabilities: MMX2 SSE2Fast SSSE3 SSE4.2 LZCNT BMI1 BMI2
    x264 [info]: profile High, level 4.1
    x264 [info]: frame I:752 Avg QP:15.13 size: 43875
    x264 [info]: frame P:34297 Avg QP:17.28 size: 22499
    x264 [info]: frame B:98075 Avg QP:19.60 size: 6679

    x264 [info]: consecutive B-frames: 3.3% 4.8% 11.4% 33.5% 22.5% 20.2% 3.1% 0.9% 0.3%
    x264 [info]: mb I I16..4: 5.6% 75.0% 19.4%
    x264 [info]: mb P I16..4: 1.4% 14.0% 2.3% P16..4: 39.0% 30.5% 11.5% 0.0% 0.0% skip: 1.3%
    x264 [info]: mb B I16..4: 0.1% 1.5% 0.3% B16..8: 44.6% 18.8% 3.8% direct: 8.0% skip:22.9% L0:39.9% L1:43.7% BI:16.4%
    x264 [info]: 8x8 transform intra:78.6% inter:61.1%
    x264 [info]: direct mvs spatial:99.8% temporal:0.2%
    x264 [info]: coded y,uvDC,uvAC intra: 90.8% 0.0% 0.0% inter: 36.3% 0.0% 0.0%
    x264 [info]: i16 v,h,dc,p: 23% 14% 6% 57%
    x264 [info]: i8 v,h,dc,ddl,ddr,vr,hd,vl,hu: 17% 8% 4% 9% 13% 14% 12% 13% 11%
    x264 [info]: i4 v,h,dc,ddl,ddr,vr,hd,vl,hu: 16% 6% 3% 10% 14% 15% 12% 12% 11%
    x264 [info]: i8c dc,h,v,p: 100% 0% 0% 0%
    x264 [info]: Weighted P-Frames: Y:53.3% UV:0.0%
    x264 [info]: ref P L0: 46.2% 13.2% 16.0% 6.9% 4.8% 4.3% 3.7% 2.9% 1.8% 0.3%
    x264 [info]: ref B L0: 84.6% 7.0% 3.2% 2.0% 1.5% 1.0% 0.6%
    x264 [info]: ref B L1: 95.8% 4.2%
    x264 [info]: kb/s:2192.93
    x264 [total]: encoded 133124 frames, 5.61 fps, 2192.93 kb/s
    General
    Unique ID : 194873040444918813948790588902715400221 (0x929B2EB16AB2E19A92BE9CACAC27A01D)
    Complete name : C:\Torrent\Дела и люди.1932.SATRip-AVC by Dmitrio7197\Дела и люди.1932.SATRip-AVC by Dmitrio7197.mkv
    Format : Matroska
    Format version : Version 2
    File size : 1.48 GiB
    Duration : 1h 28mn
    Overall bit rate : 2 387 Kbps
    Encoded date : UTC 2015-11-02 09:12:38
    Writing application : mkvmerge v6.1.0 ('Old Devil') built on Mar 4 2013 09:10:42
    Writing library : libebml v1.3.0 + libmatroska v1.4.0
    Video
    ID : 1
    Format : AVC
    Format/Info : Advanced Video Codec
    Format profile : High@L4.1
    Format settings, CABAC : Yes
    Format settings, ReFrames : 8 frames
    Codec ID : V_MPEG4/ISO/AVC
    Duration : 1h 28mn
    Bit rate : 2 193 Kbps
    Width : 704 pixels
    Height : 568 pixels
    Display aspect ratio : 4:3
    Frame rate mode : Constant
    Frame rate : 25.000 fps
    Color space : YUV
    Chroma subsampling : 4:2:0
    Bit depth : 8 bits
    Scan type : Progressive
    Bits/(Pixel*Frame) : 0.219
    Stream size : 1.33 GiB (90%)
    Writing library : x264 core 130 r2273 b3065e6
    Encoding settings : cabac=1 / ref=8 / deblock=1:0:0 / analyse=0x3:0x113 / me=umh / subme=9 / psy=1 / psy_rd=1.00:0.00 / mixed_ref=1 / me_range=24 / chroma_me=1 / trellis=2 / 8x8dct=1 / cqm=0 / deadzone=21,11 / fast_pskip=1 / chroma_qp_offset=-2 / threads=6 / lookahead_threads=1 / sliced_threads=0 / nr=0 / decimate=0 / interlaced=0 / bluray_compat=0 / constrained_intra=0 / bframes=8 / b_pyramid=2 / b_adapt=2 / b_bias=0 / direct=3 / weightb=1 / open_gop=0 / weightp=2 / keyint=250 / keyint_min=25 / scenecut=40 / intra_refresh=0 / rc_lookahead=40 / rc=2pass / mbtree=1 / bitrate=2193 / ratetol=1.0 / qcomp=0.60 / qpmin=0 / qpmax=69 / qpstep=4 / cplxblur=20.0 / qblur=0.5 / ip_ratio=1.40 / aq=1:1.00
    Default : Yes
    Forced : No
    Audio
    ID : 2
    Format : AC-3
    Format/Info : Audio Coding 3
    Mode extension : CM (complete main)
    Format settings, Endianness : Big
    Codec ID : A_AC3
    Duration : 1h 28mn
    Bit rate mode : Constant
    Bit rate : 192 Kbps
    Channel(s) : 2 channels
    Channel positions : Front: L R
    Sampling rate : 48.0 KHz
    Bit depth : 16 bits
    Compression mode : Lossy
    Stream size : 122 MiB (8%)
    Default : Yes
    Forced : No

    Скриншоты

    -
    СравнениеSATRip - http://perectracker.org/viewtopic.php?t=5107896
    http://screenshotcomparison.com/comparison/149230
    Скачать .torrent

    Скачать торрент-файл бесплатно и на максимальной скорости!

    Как скачивать? · Что такое торрент? · Рейтинг и ограничения

    !ВНИМАНИЕ!
    Сайт не распространяет и не хранит электронные версии произведений, а занимается лишь лишь предоставлением доступа к создаваемому пользователями каталогу ссылок на торрент-файлы, которые содержат только списки хеш-сумм, убедительная просьба с жалобами обращаться напрямую к пользователю. Файлы для обмена на трекере предоставлены пользователями сайта, и администрация не несёт ответственности за их содержание. Просьба не заливать файлы, защищенные авторскими правами, а также файлы нелегального содержания!


    _________________
    [Профиль] [ЛС]
    Показать сообщения:    
    Ответить на тему

    Текущее время: Сегодня, в 22:26

    Часовой пояс: GMT + 2



    Вы не можете начинать темы
    Вы не можете отвечать на сообщения
    Вы не можете редактировать свои сообщения
    Вы не можете удалять свои сообщения
    Вы не можете голосовать в опросах
    Вы не можете прикреплять файлы к сообщениям
    Вы не можете скачивать файлы