BitTorrentTracker PerecTracker.org
BitTorrentTracker PerecTracker.org
    
Регистрация  ·  Вход
 
 · 
Забыли пароль?

  • Простая девчонка (Максим Бриус) [2015, мелодрама, HDTVRip]

    Ответить на тему
     
    Автор Сообщение

    rechyn

    Создавать темы 03-Ноя-2015 11:08

           

    [Цитировать]

    Простая девчонкаСтрана: Россия
    Год выпуска: 2015
    Жанр: мелодрама
    Продолжительность: 01:42:31-Режиссер: Максим Бриус-В ролях: Анастасия Стежко, Станислав Эрдлей, Борис Хвошнянский, Александр Абрамович,
    Светлана Никифорова, Галина Чернобаева, Инна Коляда, Виктор Васильев, Ольга Сизова, Светлана Клименко, Константин Задворный
    --Алена Шелестова живет и работает в большом городе. Несмотря на то, что Алена еще очень молода, она занята серьезным делом –
    пишет кандидатскую по истории стекольного производства, а заодно организует выставку старинных изделий из стекла.
    -
    -
    Сэмпл: http://sendfile.su/1170261
    Качество видео: HDTVRip
    Формат видео: AVI
    Видео: XviD (1.2.2) 870kbps 688x384 25.000fps
    Аудио: MP3 128kbps 2ch 16bit 48000khz


    MediaInfo

    MediaInfoLib - v0.7.62
    General
    Complete name : F:\Мои раздачи 2\Простая девчонка. 2015г. HDTVRip. - kontarik81.avi
    Format : AVI
    Format/Info : Audio Video Interleave
    File size : 739 MiB
    Duration : 1h 42mn
    Overall bit rate : 1 007 Kbps
    Writing application : VirtualDubMod 1.5.10.3 | www.virtualdub-fr.org || (build 2550/release)
    Writing library : VirtualDubMod build 2550/release
    Video
    ID : 0
    Format : MPEG-4 Visual
    Format profile : Advanced Simple@L5
    Format settings, BVOP : 1
    Format settings, QPel : No
    Format settings, GMC : No warppoints
    Format settings, Matrix : Default (H.263)
    Codec ID : XVID
    Codec ID/Hint : XviD
    Duration : 1h 42mn
    Bit rate : 870 Kbps
    Width : 688 pixels
    Height : 384 pixels
    Display aspect ratio : 16:9
    Frame rate : 25.000 fps
    Color space : YUV
    Chroma subsampling : 4:2:0
    Bit depth : 8 bits
    Scan type : Progressive
    Compression mode : Lossy
    Bits/(Pixel*Frame) : 0.132
    Stream size : 638 MiB (86%)
    Writing library : XviD 1.2.1 (UTC 2008-12-04)
    Audio
    ID : 1
    Format : MPEG Audio
    Format version : Version 1
    Format profile : Layer 3
    Mode : Joint stereo
    Mode extension : MS Stereo
    Codec ID : 55
    Codec ID/Hint : MP3
    Duration : 1h 42mn
    Bit rate mode : Constant
    Bit rate : 128 Kbps
    Channel(s) : 2 channels
    Sampling rate : 48.0 KHz
    Compression mode : Lossy
    Stream size : 93.9 MiB (13%)
    Alignment : Aligned on interleaves
    Interleave, duration : 40 ms (1.00 video frame)
    Interleave, preload duration : 504 ms
    Writing library : LAME3.99r
    Encoding settings : -m j -V 4 -q 2 -lowpass 17 -b 128

    Скриншот c названием фильма

    Скриншоты

    Скачать .torrent

    Скачать торрент-файл бесплатно и на максимальной скорости!

    Как скачивать? · Что такое торрент? · Рейтинг и ограничения

    !ВНИМАНИЕ!
    Сайт не распространяет и не хранит электронные версии произведений, а занимается лишь лишь предоставлением доступа к создаваемому пользователями каталогу ссылок на торрент-файлы, которые содержат только списки хеш-сумм, убедительная просьба с жалобами обращаться напрямую к пользователю. Файлы для обмена на трекере предоставлены пользователями сайта, и администрация не несёт ответственности за их содержание. Просьба не заливать файлы, защищенные авторскими правами, а также файлы нелегального содержания!


    _________________
    [Профиль] [ЛС]
    Показать сообщения:    
    Ответить на тему

    Текущее время: Сегодня, в 12:43

    Часовой пояс: GMT + 2



    Вы не можете начинать темы
    Вы не можете отвечать на сообщения
    Вы не можете редактировать свои сообщения
    Вы не можете удалять свои сообщения
    Вы не можете голосовать в опросах
    Вы не можете прикреплять файлы к сообщениям
    Вы не можете скачивать файлы