BitTorrentTracker PerecTracker.org
BitTorrentTracker PerecTracker.org
    
Регистрация  ·  Вход
 
 · 
Забыли пароль?

  • Три плюс два (Генрих Оганисян) [1963, комедия, BDRip-AVC] [Широкоэкранная версия]

    Ответить на тему
     
    Автор Сообщение

    Light

    Создавать темы 03-Ноя-2015 11:08

           

    [Цитировать]

    Три плюс два
    Жанр: комедия
    Год выпуска: 1963
    Продолжительность: 01:39:22
    Субтитры: нет
    Режиссёр: Генрих Оганисян
    Три плюс два (Генрих Оганисян) [1963, комедия, BDRip-AVC] [Широкоэкранная версия]
    В ролях: Андрей Миронов, Евгений Жариков, Геннадий Нилов, Наталия Кустинская, Наталья Фатеева
    Описание: Легкая молодежная комедия на тему летнего отдыха. Не характерно для советского периода - дикий кемпинг на личном автотранспорте, автомобили были в жутком дефиците и стоили дорого. Кроме того, не часто встречались и дикие безлюдные пляжи с живописными видами. Хотя, для курортного романа условия идеальные...
    Доп. информация: длиннее версии 4:3 на 12 минут.
    Семпл: https://www.sendspace.com/file/z6yep0
    источник http://perectracker.org/viewtopic.php?t=5029199
    Качество видео: BDRip-AVC
    Формат видео: MKV
    Видео: 1152х476 (2.40:1), AVC (H.264), 23,976 fps, 3770 kbps avg, 0.287 bit/pixel
    Аудио: 48 KHz, AC3, 6 ch, 448 Kbps

    MediaInfo

    Общее
    Уникальный идентификатор : 220800256754394580560571879506105865348 (0xA61C9526A92DE53BA6F54B0927041484)
    Полное имя : D:\КИНО\Три плюс два.mkv
    Формат : Matroska
    Версия формата : Version 4 / Version 2
    Размер файла : 2,93 Гбайт
    Продолжительность : 1 ч. 39 м.
    Общий поток : 4220 Кбит/сек
    Дата кодирования : UTC 2015-11-02 12:10:25
    Программа кодирования : mkvmerge v8.1.0 ('Psychedelic Postcard') 32bit
    Библиотека кодирования : libebml v1.3.1 + libmatroska v1.4.2
    DURATION : 01:39:20.352000000
    NUMBER_OF_FRAMES : 186261
    NUMBER_OF_BYTES : 333779712
    _STATISTICS_WRITING_APP : mkvmerge v8.1.0 ('Psychedelic Postcard') 32bit
    _STATISTICS_WRITING_DATE_UTC : 2015-11-02 12:10:25
    _STATISTICS_TAGS : BPS DURATION NUMBER_OF_FRAMES NUMBER_OF_BYTES
    Видео
    Идентификатор : 1
    Формат : AVC
    Формат/Информация : Advanced Video Codec
    Профиль формата : High@L4.1
    Параметр CABAC формата : Да
    Параметр ReFrames формата : 15 кадров
    Идентификатор кодека : V_MPEG4/ISO/AVC
    Продолжительность : 1 ч. 39 м.
    Битрейт : 3770 Кбит/сек
    Ширина : 1152 пикселя
    Высота : 476 пикселей
    Соотношение сторон : 2,40:1
    Режим частоты кадров : Постоянный
    Частота кадров : 23,976 кадра/сек
    Цветовое пространство : YUV
    Субдискретизация насыщенности : 4:2:0
    Битовая глубина : 8 бит
    Тип развёртки : Прогрессивная
    Бит/(Пиксели*Кадры) : 0.287
    Размер потока : 2,56 Гбайт (87%)
    Библиотека кодирования : x264 core 146 r2538 121396c
    Настройки программы : cabac=1 / ref=15 / deblock=1:-2:-1 / analyse=0x3:0x133 / me=umh / subme=10 / psy=1 / psy_rd=1.00:0.10 / mixed_ref=1 / me_range=32 / chroma_me=1 / trellis=2 / 8x8dct=1 / cqm=0 / deadzone=21,11 / fast_pskip=0 / chroma_qp_offset=-3 / threads=3 / lookahead_threads=1 / sliced_threads=0 / nr=0 / decimate=1 / interlaced=0 / bluray_compat=0 / constrained_intra=0 / bframes=10 / b_pyramid=2 / b_adapt=2 / b_bias=0 / direct=3 / weightb=1 / open_gop=0 / weightp=2 / keyint=240 / keyint_min=23 / scenecut=40 / intra_refresh=0 / rc_lookahead=60 / rc=2pass / mbtree=1 / bitrate=3770 / ratetol=1.0 / qcomp=0.60 / qpmin=10 / qpmax=51 / qpstep=4 / cplxblur=20.0 / qblur=0.5 / vbv_maxrate=62500 / vbv_bufsize=78125 / nal_hrd=none / filler=0 / ip_ratio=1.40 / aq=1:1.00
    Default : Да
    Forced : Нет
    Аудио
    Идентификатор : 2
    Формат : AC-3
    Формат/Информация : Audio Coding 3
    Расширение режима : CM (complete main)
    Параметр Endianness формата : Big
    Идентификатор кодека : A_AC3
    Продолжительность : 1 ч. 39 м.
    Вид битрейта : Постоянный
    Битрейт : 448 Кбит/сек
    Каналы : 6 каналов
    Расположение каналов : Front: L C R, Side: L R, LFE
    Частота : 48,0 КГц
    Битовая глубина : 16 бит
    Метод сжатия : С потерями
    Размер потока : 318 Мбайт (11%)
    Default : Да
    Forced : Нет

    Скриншоты

    лог

    ---[Information] [01.11.2015 18:09:22] avs [info]: 1152x476p 1:1 @ 24000/1001 fps (cfr)
    ---[Information] [01.11.2015 18:09:22] x264 [info]: using SAR=1/1
    ---[Information] [01.11.2015 18:09:22] x264 [info]: using cpu capabilities: MMX2 SSE2Fast LZCNT
    ---[Information] [01.11.2015 18:09:22] x264 [info]: profile High, level 4.1
    ---[Information] [02.11.2015 10:43:13] x264 [info]: frame I:896 Avg QP:16.70 size:129048
    ---[Information] [02.11.2015 10:43:13] x264 [info]: frame P:35080 Avg QP:19.86 size: 43421
    ---[Information] [02.11.2015 10:43:13] x264 [info]: frame B:106972 Avg QP:23.24 size: 10947
    ---[Information] [02.11.2015 10:43:13] x264 [info]: consecutive B-frames: 3.6% 3.9% 8.6% 26.7% 18.9% 34.7% 2.3% 0.3% 0.4% 0.1% 0.3%
    ---[Information] [02.11.2015 10:43:13] x264 [info]: mb I I16..4: 3.6% 72.7% 23.8%
    ---[Information] [02.11.2015 10:43:13] x264 [info]: mb P I16..4: 0.1% 7.8% 1.6% P16..4: 36.2% 28.3% 22.8% 1.6% 0.6% skip: 1.1%
    ---[Information] [02.11.2015 10:43:13] x264 [info]: mb B I16..4: 0.0% 0.8% 0.2% B16..8: 37.9% 13.3% 5.0% direct: 6.1% skip:36.6% L0:38.2% L1:44.4% BI:17.4%
    ---[Information] [02.11.2015 10:43:13] x264 [info]: 8x8 transform intra:79.2% inter:57.7%
    ---[Information] [02.11.2015 10:43:13] x264 [info]: direct mvs spatial:98.2% temporal:1.8%
    ---[Information] [02.11.2015 10:43:13] x264 [info]: coded y,uvDC,uvAC intra: 98.2% 78.1% 46.9% inter: 36.7% 18.1% 3.4%
    ---[Information] [02.11.2015 10:43:13] x264 [info]: i16 v,h,dc,p: 11% 14% 26% 49%
    ---[Information] [02.11.2015 10:43:13] x264 [info]: i8 v,h,dc,ddl,ddr,vr,hd,vl,hu: 8% 14% 7% 8% 13% 11% 15% 10% 15%
    ---[Information] [02.11.2015 10:43:13] x264 [info]: i4 v,h,dc,ddl,ddr,vr,hd,vl,hu: 9% 12% 3% 7% 14% 12% 17% 10% 16%
    ---[Information] [02.11.2015 10:43:13] x264 [info]: i8c dc,h,v,p: 40% 30% 17% 14%
    ---[Information] [02.11.2015 10:43:13] x264 [info]: Weighted P-Frames: Y:2.7% UV:0.6%
    ---[Information] [02.11.2015 10:43:13] x264 [info]: ref P L0: 46.1% 15.9% 16.3% 4.1% 4.2% 2.4% 2.7% 1.2% 1.5% 1.0% 1.2% 0.8% 1.0% 0.7% 0.9% 0.1%
    ---[Information] [02.11.2015 10:43:13] x264 [info]: ref B L0: 78.9% 9.7% 3.6% 1.9% 1.3% 1.1% 0.9% 0.6% 0.5% 0.4% 0.4% 0.4% 0.2% 0.1%
    ---[Information] [02.11.2015 10:43:13] x264 [info]: ref B L1: 94.9% 5.1%
    ---[Information] [02.11.2015 10:43:13] x264 [info]: kb/s:3770.24
    ---[Information] [02.11.2015 10:43:13] encoded 142948 frames, 2.40 fps, 3770.24 kb/s
    Скачать .torrent

    Скачать торрент-файл бесплатно и на максимальной скорости!

    Как скачивать? · Что такое торрент? · Рейтинг и ограничения

    !ВНИМАНИЕ!
    Сайт не распространяет и не хранит электронные версии произведений, а занимается лишь лишь предоставлением доступа к создаваемому пользователями каталогу ссылок на торрент-файлы, которые содержат только списки хеш-сумм, убедительная просьба с жалобами обращаться напрямую к пользователю. Файлы для обмена на трекере предоставлены пользователями сайта, и администрация не несёт ответственности за их содержание. Просьба не заливать файлы, защищенные авторскими правами, а также файлы нелегального содержания!


    _________________
    [Профиль] [ЛС]
    Показать сообщения:    
    Ответить на тему

    Текущее время: Сегодня, в 11:42

    Часовой пояс: GMT + 2



    Вы не можете начинать темы
    Вы не можете отвечать на сообщения
    Вы не можете редактировать свои сообщения
    Вы не можете удалять свои сообщения
    Вы не можете голосовать в опросах
    Вы не можете прикреплять файлы к сообщениям
    Вы не можете скачивать файлы