BitTorrentTracker PerecTracker.org
BitTorrentTracker PerecTracker.org
    
Регистрация  ·  Вход
 
 · 
Забыли пароль?

  • Агенты А.Н.К.Л. / The Man from U.N.C.L.E. (Гай Ричи / Guy Ritchie) [2015,США, Великобритания,боевик, комедия, приключения,WEB-DLRip] Dub (iTunes) + Sub (Rus)

    Ответить на тему
     
    Автор Сообщение

    rechyn

    Создавать темы 03-Ноя-2015 11:08

           

    [Цитировать]

    Агенты А.Н.К.Л. / The Man from U.N.C.L.E.
    Выпущено: США, Великобритания / Davis Entertainment, RatPac-Dune Entertainment, Warner Bros
    Жанр: боевик, комедия, приключения
    Год выхода: 2015
    Продолжительность: 01:56:27-Озвучивание: Профессиональный (дублированный) [iTunes]
    Оригинальная аудио дорожка: нет
    Субтитры: Русские (форсированные) | Вшитые |-Режиссер: Гай Ричи / Guy Ritchie
    В ролях: Генри Кавилл, Арми Хаммер, Алисия Викандер, Элизабет Дебики, Хью Грант, Лука Кальвани, Сильвестр Грот, Джаред Харрис, Кристиан Беркель, Миша Кузнецов, Гай Уильямс, Марианна Ди Мартино, Джулиан Майкл Деустер, Андреа Каглиши, Риккардо Калваниз-О фильме: Наполеон Соло — агент ЦРУ, на счету которого огромное количество успешно проведенных операций. Он считается одним из лучших секретных агентов во всем мире, и с ним может сравниться только один человек — самый молодой и перспективный агент КГБ, Илья Курякин. Их противостояние переросло в настоящую войну, в которой никто не собирается уступать. Однако обстоятельства складываются так, что непримиримые враги вынуждены стать напарниками. Это происходит после того как спецслужбы двух стран обнаруживают международную преступную организацию, которой удалось создать ядерную бомбу…- С.э.м.п.л-Качество: WEB-DLRip
    Формат: AVI (XviD)
    Видео: 720x304 (2.37:1), 23.976 fps, XviD ~1396 kbps avg, 0.27 bit/pixel
    Аудио: 48 kHz, AC3 Dolby Digital, 3/2 (L,C,R,l,r) + LFE ch, ~384.00 kbps avg DUB-

    MI

    General
    Complete name                            : Agenty.A.N.K.L.2015.D.WEB-DLRip.1.46GB.MGT.avi
    Format                                   : AVI
    Format/Info                              : Audio Video Interleave
    File size                                : 1.46 GiB
    Duration                                 : 1h 56mn
    Overall bit rate                         : 1 789 Kbps
    Writing application                      : VirtualDubMod 1.5.10.2 (build 2540/release)
    Writing library                          : VirtualDubMod build 2540/release
    Video
    ID                                       : 0
    Format                                   : MPEG-4 Visual
    Format profile                           : Advanced Simple@L5
    Format settings, BVOP                    : 2
    Format settings, QPel                    : No
    Format settings, GMC                     : No warppoints
    Format settings, Matrix                  : Default (MPEG)
    Codec ID                                 : XVID
    Codec ID/Hint                            : XviD
    Duration                                 : 1h 56mn
    Bit rate                                 : 1 396 Kbps
    Width                                    : 720 pixels
    Height                                   : 304 pixels
    Display aspect ratio                     : 2.35:1
    Frame rate                               : 23.976 fps
    Color space                              : YUV
    Chroma subsampling                       : 4:2:0
    Bit depth                                : 8 bits
    Scan type                                : Progressive
    Compression mode                         : Lossy
    Bits/(Pixel*Frame)                       : 0.266
    Stream size                              : 1.14 GiB (78%)
    Writing library                          : XviD 1.2.1 (UTC 2008-12-04)
    Audio
    ID                                       : 1
    Format                                   : AC-3
    Format/Info                              : Audio Coding 3
    Mode extension                           : CM (complete main)
    Format settings, Endianness              : Big
    Codec ID                                 : 2000
    Duration                                 : 1h 56mn
    Bit rate mode                            : Constant
    Bit rate                                 : 384 Kbps
    Channel count                            : 6 channels
    Channel positions                        : Front: L C R, Side: L R, LFE
    Sampling rate                            : 48.0 KHz
    Bit depth                                : 16 bits
    Compression mode                         : Lossy
    Stream size                              : 320 MiB (21%)
    Alignment                                : Split accross interleaves
    Interleave, duration                     : 42 ms (1.00 video frame)
    Interleave, preload duration             : 500 ms

    Скриншоты

    Скачать .torrent

    Скачать торрент-файл бесплатно и на максимальной скорости!

    Как скачивать? · Что такое торрент? · Рейтинг и ограничения

    !ВНИМАНИЕ!
    Сайт не распространяет и не хранит электронные версии произведений, а занимается лишь лишь предоставлением доступа к создаваемому пользователями каталогу ссылок на торрент-файлы, которые содержат только списки хеш-сумм, убедительная просьба с жалобами обращаться напрямую к пользователю. Файлы для обмена на трекере предоставлены пользователями сайта, и администрация не несёт ответственности за их содержание. Просьба не заливать файлы, защищенные авторскими правами, а также файлы нелегального содержания!


    _________________
    [Профиль] [ЛС]
    Показать сообщения:    
    Ответить на тему

    Текущее время: Сегодня, в 02:00

    Часовой пояс: GMT + 2



    Вы не можете начинать темы
    Вы не можете отвечать на сообщения
    Вы не можете редактировать свои сообщения
    Вы не можете удалять свои сообщения
    Вы не можете голосовать в опросах
    Вы не можете прикреплять файлы к сообщениям
    Вы не можете скачивать файлы