BitTorrentTracker PerecTracker.org
BitTorrentTracker PerecTracker.org
    
Регистрация  ·  Вход
 
 · 
Забыли пароль?

  • [iPad] Последний вагон. Весна (Антон Калинкин) [2015, Россия, Триллер, WEB-DLRip, SD (576p)] Original

    Ответить на тему
     
    Автор Сообщение

    rechyn

    Создавать темы 03-Ноя-2015 06:56

           

    [Цитировать]

    Последний вагон. Весна
    -
    8.33 / 10
    -Год выпуска: 2015
    Страна: Россия
    Жанр: Триллер
    Продолжительность: 01:45:35
    Перевод: Не требуется
    Оригинальная аудиодорожка: Есть
    Режиссёр: Антон Калинкин
    Сценарий: Юрий Эпштейн, Антон Калинкин
    Продюсер: Дмитрий Ефремов, Владимир Пономаренко, Антон Калинкин
    Оператор: Илья Кондратьев
    Композитор: Мария Григорьева
    Художник: Регина Назарян, Виктория Ефимова-Шестаковская
    Монтаж: Сергей Воронин
    В ролях: Илья Любимов, Мария Андреева, Анна Чурина, Борис Хвошнянский, Тимофей Трибунцев, Петар Зекавица, Сергей Греков, Алексей Ингелевич, Сергей Комаров, Екатерина Маликова
    Сборы в России: $952
    Мировая премьера:
    Премьера (РФ): 17 сентября 2015, «Кинография»
    Описание: Главный герой Виктор — молодой тренер по боксу, у которого все великолепно: хорошая работа, красивая девушка рядом, веселые друзья. Однако жизнь приготовила ему серьезные испытания — в одну секунду все меняется и он становится главным подозреваемым в трех убийствах. Но судьба дает ему шанс…-Качество исходника: WEB-DL 1080p
    Качество: WEB-DLRip
    Тип: SD (576p)
    Контейнер: M4V
    Видео: H.264, 1024x432, 2.40:1, 2 200 Kbps, 23.976 fps
    Аудио: Русский/Оригинальная дорожка , AAC / 2.0 / 156 Kbps / 48.0 KHz
    -

    iTunes Meta Tags

    Sort Name: Последний вагон. Весна
    XID: Apple:vendor_id:2015-893205
    contentID: 1050209363
    Copyright: © 2015 CDLand
    Screenwriters: Юрий Эпштейн, Антон Калинкин
    Producers: Дмитрий Ефремов, Владимир Пономаренко, Антон Калинкин
    Director: Антон Калинкин
    Cast: Илья Любимов, Мария Андреева, Анна Чурина, Борис Хвошнянский, Тимофей Трибунцев, Петар Зекавица, Сергей Греков, Алексей Ингелевич, Сергей Комаров, Екатерина Маликова
    Studio: Медиа группа EXIT production, Red Carpet Studio, «ТАН-Фильм»
    Rating: 136
    Long Description: Главный герой Виктор - молодой тренер по боксу, у которого все великолепно: хорошая работа, красивая девушка рядом, веселые друзья. Однако жизнь приготовила ему серьезные испытания - в одну секунду все меняется и он становится главным подозреваемым в трех убийствах. Но судьба дает ему шанс...
    Description: Главный герой Виктор - молодой тренер по боксу, у которого все великолепно: хорошая работа, красивая девушка рядом, веселые друзья. Однако жизнь приготовила ему серьезные испытания - в одну секунду все меняется и он становится главным подозреваемым в трех убийствах. Но судьба дает ему шанс...
    Release Date: 2015-01-01T08:00:00Z
    Genre: Русское кино
    Artist: Антон Калинкин
    Name: Последний вагон. Весна

    MediaInfo

    General
    Complete name : /Users/imac/HandBrake/Posledniy.vagon.Vesna.(SD).(pk).m4v
    Format : MPEG-4
    Codec ID : M4V
    File size : 1.74 GiB
    Duration : 1h 45mn
    Overall bit rate mode : Variable
    Overall bit rate : 2 362 Kbps
    Movie name : Последний вагон. Весна
    Performer : Антон Калинкин
    Director : Антон Калинкин
    Actor : Илья Любимов / Мария Андреева / Анна Чурина / Борис Хвошнянский / Тимофей Трибунцев / Петар Зекавица / Сергей Греков / Алексей Ингелевич / Сергей Комаров / Екатерина Маликова
    Screenplay by : Юрий Эпштейн / Антон Калинкин
    Producer : Дмитрий Ефремов / Владимир Пономаренко / Антон Калинкин
    Production studio : Медиа группа EXIT production, Red Carpet Studio, «ТАН-Фильм»
    Genre : Русское кино
    ContentType : Short Film
    Description : Главный герой Виктор - молодой тренер по боксу, у которого все великолепно: хорошая работа, красивая девушка рядом, веселые друзья. Однако жизнь приготовила ему серьезные испытания - в одну секунду все меняется и он становится главным подозреваемым в трех убийствах. Но судьба дает ему шанс...
    Recorded date : UTC 2015-01-01 08:00:00
    Encoded date : UTC 2015-11-02 22:39:34
    Tagged date : UTC 2015-11-02 22:42:42
    Copyright : © 2015 CDLand
    Cover : Yes
    Rating : None
    Title/Sort : Последний вагон. Весна
    LongDescription : Главный герой Виктор - молодой тренер по боксу, у которого все великолепно: хорошая работа, красивая девушка рядом, веселые друзья. Однако жизнь приготовила ему серьезные испытания - в одну секунду все меняется и он становится главным подозреваемым в трех убийствах. Но судьба дает ему шанс...
    AppleStoreCatalogID : 1050209363
    Vendor : Apple:vendor_id:2015-893205
    ContentRating : ru-movie|18+|400|
    Video #1
    ID : 1
    Format : AVC
    Format/Info : Advanced Video Codec
    Format profile : High@L3.1
    Format settings, CABAC : Yes
    Format settings, ReFrames : 9 frames
    Codec ID : avc1
    Codec ID/Info : Advanced Video Coding
    Duration : 1h 45mn
    Source duration : 1h 45mn
    Bit rate : 2 200 Kbps
    Width : 1 024 pixels
    Height : 432 pixels
    Display aspect ratio : 2.40:1
    Frame rate mode : Variable
    Frame rate : 23.976 fps
    Minimum frame rate : 23.810 fps
    Maximum frame rate : 24.318 fps
    Color space : YUV
    Chroma subsampling : 4:2:0
    Bit depth : 8 bits
    Scan type : Progressive
    Bits/(Pixel*Frame) : 0.207
    Stream size : 1.62 GiB (93%)
    Source stream size : 1.62 GiB (93%)
    Title : Main Program
    Writing library : x264 core 142 r2479 dd79a61
    Encoding settings : cabac=1 / ref=9 / deblock=1:0:0 / analyse=0x3:0x113 / me=umh / subme=9 / psy=1 / psy_rd=1.00:0.00 / mixed_ref=1 / me_range=32 / chroma_me=1 / trellis=1 / 8x8dct=1 / cqm=0 / deadzone=21,11 / fast_pskip=1 / chroma_qp_offset=-2 / threads=36 / lookahead_threads=3 / sliced_threads=0 / nr=0 / decimate=1 / interlaced=0 / bluray_compat=0 / constrained_intra=0 / bframes=6 / b_pyramid=2 / b_adapt=2 / b_bias=0 / direct=1 / weightb=1 / open_gop=0 / weightp=2 / keyint=240 / keyint_min=24 / scenecut=40 / intra_refresh=0 / rc_lookahead=40 / rc=2pass / mbtree=1 / bitrate=2200 / ratetol=1.0 / qcomp=0.60 / qpmin=0 / qpmax=69 / qpstep=4 / cplxblur=20.0 / qblur=0.5 / ip_ratio=1.40 / aq=1:1.00
    Language : Russian
    Encoded date : UTC 2015-11-02 22:39:34
    Tagged date : UTC 2015-11-02 22:39:40
    Color range : Limited
    Color primaries : BT.709
    Transfer characteristics : BT.709
    Matrix coefficients : BT.709
    Video #2
    ID : 4
    Format : JPEG
    Codec ID : jpeg
    Duration : 1h 45mn
    Bit rate mode : Variable
    Bit rate : 692 bps
    Width : 640 pixels
    Height : 270 pixels
    Display aspect ratio : 2.40:1
    Frame rate mode : Variable
    Frame rate : 0.002 fps
    Minimum frame rate : 0.002 fps
    Maximum frame rate : 0.004 fps
    Color space : YUV
    Chroma subsampling : 4:2:0
    Bit depth : 8 bits
    Compression mode : Lossy
    Bits/(Pixel*Frame) : 2.002
    Stream size : 549 KiB (0%)
    Title : Chapter Images
    Language : Russian
    Encoded date : UTC 2015-11-02 22:39:57
    Tagged date : UTC 2015-11-02 22:39:57
    Audio
    ID : 2
    Format : AAC
    Format/Info : Advanced Audio Codec
    Format profile : LC
    Codec ID : 40
    Duration : 1h 45mn
    Bit rate mode : Variable
    Bit rate : 156 Kbps
    Maximum bit rate : 244 Kbps
    Channel(s) : 2 channels
    Channel positions : Front: L R
    Sampling rate : 48.0 KHz
    Compression mode : Lossy
    Stream size : 118 MiB (7%)
    Title : Russian Stereo
    Language : Russian
    Encoded date : UTC 2015-11-02 22:39:34
    Tagged date : UTC 2015-11-02 22:39:54
    Menu #1
    00:00:00.000 : Глава 1
    00:06:16.000 : Глава 2
    00:17:16.000 : Глава 3
    00:24:42.000 : Глава 4
    00:33:49.000 : Глава 5
    00:42:42.000 : Глава 6
    00:50:41.000 : Глава 7
    00:57:50.000 : Глава 8
    01:06:38.000 : Глава 9
    01:15:25.000 : Глава 10
    01:25:16.000 : Глава 11
    01:31:53.000 : Глава 12
    01:41:28.000 : Глава 13
    Menu #2
    ID : 3
    Codec ID : text
    Duration : 1h 45mn
    Language : Russian
    Encoded date : UTC 2015-11-02 22:39:54
    Tagged date : UTC 2015-11-02 22:39:54
    00:00:00.000 : Глава 1
    00:06:16.000 : Глава 2
    00:17:16.000 : Глава 3
    00:24:42.000 : Глава 4
    00:33:49.000 : Глава 5
    00:42:42.000 : Глава 6
    00:50:41.000 : Глава 7
    00:57:50.000 : Глава 8
    01:06:38.000 : Глава 9
    01:15:25.000 : Глава 10
    01:25:16.000 : Глава 11
    01:31:53.000 : Глава 12
    01:41:28.000 : Глава 13
    Bit rate mode : VBR

    x264 лог

    x264 [info]: frame I:982   Avg QP:11.09  size: 80781
    x264 [info]: frame P:39704 Avg QP:13.58  size: 26481
    x264 [info]: frame B:111219 Avg QP:16.51  size:  5497
    x264 [info]: consecutive B-frames:  2.2%  3.9%  4.8% 72.7%  5.6%  9.3%  1.4%
    x264 [info]: mb I  I16..4:  9.0% 63.4% 27.6%
    x264 [info]: mb P  I16..4:  1.5%  6.3%  1.8%  P16..4: 32.7% 31.4% 21.5%  0.0%  0.0%    skip: 4.8%
    x264 [info]: mb B  I16..4:  0.2%  0.5%  0.2%  B16..8: 34.1% 12.5%  3.6%  direct: 5.7%  skip:43.2%  L0:38.8% L1:42.7% BI:18.5%
    x264 [info]: 8x8 transform intra:65.4% inter:64.0%
    x264 [info]: coded y,uvDC,uvAC intra: 84.3% 88.4% 73.3% inter: 27.9% 21.4% 5.6%
    x264 [info]: i16 v,h,dc,p: 38% 12%  6% 43%
    x264 [info]: i8 v,h,dc,ddl,ddr,vr,hd,vl,hu: 14% 12% 10%  8% 10% 11% 11% 11% 12%
    x264 [info]: i4 v,h,dc,ddl,ddr,vr,hd,vl,hu: 13% 11%  4%  8% 14% 14% 13% 11% 11%
    x264 [info]: i8c dc,h,v,p: 42% 23% 20% 15%
    x264 [info]: Weighted P-Frames: Y:2.2% UV:1.0%
    x264 [info]: ref P L0: 51.3%  9.4% 17.1%  6.2%  5.1%  3.6%  3.4%  1.8%  2.0%  0.2%  0.0%
    x264 [info]: ref B L0: 78.7% 10.2%  4.4%  2.4%  1.6%  1.3%  1.0%  0.3%
    x264 [info]: ref B L1: 95.3%  4.7%
    x264 [info]: kb/s:2199.79

    Скриншоты

    -

    Релиз подготовлен для просмотра на Apple TV, iPad, iPhone, iPod Touch.
    Для просмотра данного релиза на компьютере с ОС Windows рекомендуется использовать VLC media player
    Скачать .torrent

    Скачать торрент-файл бесплатно и на максимальной скорости!

    Как скачивать? · Что такое торрент? · Рейтинг и ограничения

    !ВНИМАНИЕ!
    Сайт не распространяет и не хранит электронные версии произведений, а занимается лишь лишь предоставлением доступа к создаваемому пользователями каталогу ссылок на торрент-файлы, которые содержат только списки хеш-сумм, убедительная просьба с жалобами обращаться напрямую к пользователю. Файлы для обмена на трекере предоставлены пользователями сайта, и администрация не несёт ответственности за их содержание. Просьба не заливать файлы, защищенные авторскими правами, а также файлы нелегального содержания!


    _________________
    [Профиль] [ЛС]
    Показать сообщения:    
    Ответить на тему

    Текущее время: Сегодня, в 22:20

    Часовой пояс: GMT + 2



    Вы не можете начинать темы
    Вы не можете отвечать на сообщения
    Вы не можете редактировать свои сообщения
    Вы не можете удалять свои сообщения
    Вы не можете голосовать в опросах
    Вы не можете прикреплять файлы к сообщениям
    Вы не можете скачивать файлы