BitTorrentTracker PerecTracker.org
BitTorrentTracker PerecTracker.org
    
Регистрация  ·  Вход
 
 · 
Забыли пароль?

  • Покровские ворота (Михаил Козаков) [1982, драма, мелодрама, комедия, BDRip]

    Ответить на тему
     
    Автор Сообщение

    Light

    Создавать темы 02-Ноя-2015 18:20

           

    [Цитировать]

    Покровские ворота
    Жанр: Драма, мелодрама, комедия
    Год выпуска: 1982
    Продолжительность: 02:19:43
    Режиссёр: Михаил Козаков
    В ролях: Олег Меньшиков, Леонид Броневой, Инна Ульянова, Софья Пилявская, Анатолий Равикович, Виктор Борцов, Елена Коренева, Татьяна Догилева, Елизавета Никищихина, Игорь Дмитриев, Евгений Моргунов, Наталья Крачковская, Валентина Воилкова, Эммануил Геллер, Михаил Козаков, Алексей Коняшин, Леонид Машков, Владимир Пицек
    Описание: Если вы развелись, и ваша бывшая жена снова вышла замуж - это еще не значит, что вы свободны. Если вы пригласили девушку на свидание, и она пришла, это еще не значит, что она будет вашей. Но если при этом ваш сосед по коммуналке - студент Костик, то можете быть уверены - все будет хорошо...
    Доп. информация:
    Семпл: http://multi-up.com/1059129
    Формат видео: AVI
    Качество видео: BDRip (Blu-ray)
    Видео: XviD, 640х464, 23.976fps, 1355kbps
    Аудио: MPEG Layer 3, 2ch, 48000Hz, 128kbps

    MediaInfo

    General
    Complete name : Pokrovskie.Vorota.1982.O.BDRip.1400.CurHaJI.avi
    Format : AVI
    Format/Info : Audio Video Interleave
    File size : 1.46 GiB
    Duration : 2h 19mn
    Overall bit rate : 1 493 Kbps
    Movie name : Pokrovskie.Vorota.1982.O.BDRip.1400.CurHaJI
    Writing application : Lavf53.13.0
    Writing library : VirtualDub build 35491/release
    Video
    ID : 0
    Format : MPEG-4 Visual
    Format profile : Advanced Simple@L5
    Format settings, BVOP : 2
    Format settings, QPel : No
    Format settings, GMC : No warppoints
    Format settings, Matrix : Custom
    Codec ID : XVID
    Codec ID/Hint : XviD
    Duration : 2h 19mn
    Bit rate : 1 355 Kbps
    Width : 640 pixels
    Height : 464 pixels
    Display aspect ratio : 1.379
    Frame rate : 23.976 fps
    Color space : YUV
    Chroma subsampling : 4:2:0
    Bit depth : 8 bits
    Scan type : Progressive
    Compression mode : Lossy
    Bits/(Pixel*Frame) : 0.190
    Stream size : 1.32 GiB (91%)
    Writing library : XviD 64
    Audio
    ID : 1
    Format : MPEG Audio
    Format version : Version 1
    Format profile : Layer 3
    Codec ID : 55
    Codec ID/Hint : MP3
    Duration : 2h 19mn
    Bit rate mode : Constant
    Bit rate : 128 Kbps
    Channel(s) : 2 channels
    Sampling rate : 48.0 KHz
    Compression mode : Lossy
    Delay relative to video : 8ms
    Stream size : 128 MiB (9%)
    Alignment : Split accross interleaves
    Interleave, duration : 42 ms (1.00 video frame)
    Interleave, preload duration : 500 ms
    Writing library : LAME3.99.1

    Скриншоты

    Скачать .torrent

    Скачать торрент-файл бесплатно и на максимальной скорости!

    Как скачивать? · Что такое торрент? · Рейтинг и ограничения

    !ВНИМАНИЕ!
    Сайт не распространяет и не хранит электронные версии произведений, а занимается лишь лишь предоставлением доступа к создаваемому пользователями каталогу ссылок на торрент-файлы, которые содержат только списки хеш-сумм, убедительная просьба с жалобами обращаться напрямую к пользователю. Файлы для обмена на трекере предоставлены пользователями сайта, и администрация не несёт ответственности за их содержание. Просьба не заливать файлы, защищенные авторскими правами, а также файлы нелегального содержания!


    _________________
    [Профиль] [ЛС]
    Показать сообщения:    
    Ответить на тему

    Текущее время: Сегодня, в 14:39

    Часовой пояс: GMT + 2



    Вы не можете начинать темы
    Вы не можете отвечать на сообщения
    Вы не можете редактировать свои сообщения
    Вы не можете удалять свои сообщения
    Вы не можете голосовать в опросах
    Вы не можете прикреплять файлы к сообщениям
    Вы не можете скачивать файлы