BitTorrentTracker PerecTracker.org
BitTorrentTracker PerecTracker.org
    
Регистрация  ·  Вход
 
 · 
Забыли пароль?

  • Мафия бессмертна (Леонид Партигул) [1993, криминал, DVB, AVC]

    Ответить на тему
     
    Автор Сообщение

    rechyn

    Создавать темы 02-Ноя-2015 18:20

           

    [Цитировать]

    Мафия бессмертна
    Жанр: криминал
    Год выпуска: 1993
    Продолжительность: 01:26:37-Режиссёр: Леонид Партигул
    В ролях: Дмитрий Певцов, Татьяна Скороходова, Леонард Толстой, Бахтияр Закиров, Геннадий Макоев, Андрей Болтнев, Анатолий Мамбетов, Шухрат Иргашев, Николай Бадьев, Валерий Величко, Джавлон Хамраев-Описание: Бывший сыщик уголовного розыска Виктор Гришанин, самостоятельно расследующий таинственную гибель своего отца, обвиняется в смерти свидетеля по этому делу и посажен в тюрьму. Однако, лучший друг его погибшего отца, депутат, инсценирует смерть Виктора при попытке к бегству и тайно вывозит его из мест заключения. Он берет Виктора под свою опеку и рассказывает, как к нему обратились из комитета восточных культур с просьбой отыскать одну особо ценную реликвию, к розыску которой в свое время был причастен и отец Виктора. Незадолго до своей гибели отец рассказывал Виктору о существовании тайника, и он готов тут же отправиться на его поиски. Если бы он только знал, сколько еще людей охотятся за этой реликвией-Доп. информация: DVB имеет иное наполнение кадра, чем DVD
    За создание постера - огромное спасибо
    Bason-Сэмпл: минута54сек-Качество видео: DVB
    Формат видео: MKV
    Видео: AVC, 720x576, 4:3, 25,000 кадров/сек, 3124 Кбит/сек
    Аудио: MP2, 48,0 КГц, 256 Кбит/сек, 2 канала

    Сравнение с DVD

    DVD
    6 скринов

    MediaInfo

    Общее
    Уникальный идентификатор : 221346528928330188612547633434294799278 (0xA685CA72D8CEA033B0170F1330D4CBAE)
    Полное имя : Мафия бессмертна.1993.DVB.mkv
    Формат : Matroska
    Версия формата : Version 2
    Размер файла : 2,09 Гбайт
    Продолжительность : 1 ч. 26 м.
    Общий поток : 3449 Кбит/сек
    Название фильма : Мафия бессмертна.1994.DVB.2015.08.29
    Дата кодирования : UTC 2015-08-29 13:38:59
    Программа кодирования : mkvmerge v8.3.0 ('Over the Horizon') 32bit
    Библиотека кодирования : libebml v1.3.1 + libmatroska v1.4.2
    Видео
    Идентификатор : 1
    Формат : AVC
    Формат/Информация : Advanced Video Codec
    Профиль формата : High@L3
    Параметр CABAC формата : Да
    Параметр ReFrames формата : 3 кадра
    Параметр GOP формата : M=4, N=28
    Идентификатор кодека : V_MPEG4/ISO/AVC
    Продолжительность : 1 ч. 26 м.
    Битрейт : 3124 Кбит/сек
    Ширина : 720 пикселей
    Высота : 576 пикселей
    Соотношение сторон : 4:3
    Соотношение сторон в оригинале : 4:3
    Режим частоты кадров : Постоянный
    Частота кадров : 25,000 кадров/сек
    Стандарт вещания : Component
    Цветовое пространство : YUV
    Субдискретизация насыщенности : 4:2:0
    Битовая глубина : 8 бит
    Тип развёртки : Чересстрочная
    Порядок развёртки : Верхнее поле первое
    Бит/(Пиксели*Кадры) : 0.301
    Размер потока : 1,89 Гбайт (91%)
    Заголовок : Мафия бессмертна.1994.DVB
    Язык : Russian
    Default : Да
    Forced : Нет
    Цветовой диапазон : Limited
    Основные цвета : BT.601 PAL
    Характеристики трансфера : BT.470 System B, BT.470 System G
    Коэффициенты матрицы : BT.601
    Аудио
    Идентификатор : 2
    Формат : MPEG Audio
    Версия формата : Version 1
    Профиль формата : Layer 2
    Идентификатор кодека : A_MPEG/L2
    Идентификатор кодека/Подсказка : MP2
    Продолжительность : 1 ч. 26 м.
    Вид битрейта : Постоянный
    Битрейт : 256 Кбит/сек
    Каналы : 2 канала
    Частота : 48,0 КГц
    Метод сжатия : С потерями
    Размер потока : 159 Мбайт (7%)
    Язык : Russian
    Default : Да
    Forced : Нет

    Скриншоты

    Скачать .torrent

    Скачать торрент-файл бесплатно и на максимальной скорости!

    Как скачивать? · Что такое торрент? · Рейтинг и ограничения

    !ВНИМАНИЕ!
    Сайт не распространяет и не хранит электронные версии произведений, а занимается лишь лишь предоставлением доступа к создаваемому пользователями каталогу ссылок на торрент-файлы, которые содержат только списки хеш-сумм, убедительная просьба с жалобами обращаться напрямую к пользователю. Файлы для обмена на трекере предоставлены пользователями сайта, и администрация не несёт ответственности за их содержание. Просьба не заливать файлы, защищенные авторскими правами, а также файлы нелегального содержания!


    _________________
    [Профиль] [ЛС]
    Показать сообщения:    
    Ответить на тему

    Текущее время: Сегодня, в 10:42

    Часовой пояс: GMT + 2



    Вы не можете начинать темы
    Вы не можете отвечать на сообщения
    Вы не можете редактировать свои сообщения
    Вы не можете удалять свои сообщения
    Вы не можете голосовать в опросах
    Вы не можете прикреплять файлы к сообщениям
    Вы не можете скачивать файлы