BitTorrentTracker PerecTracker.org
BitTorrentTracker PerecTracker.org
    
Регистрация  ·  Вход
 
 · 
Забыли пароль?

  • Мистер Холмс / Mr. Holmes (Билл Кондон / Bill Condon) [2015, Великобритания, США, драма, криминал, детектив, HDRip] MVO

    Ответить на тему
     
    Автор Сообщение

    rechyn

    Создавать темы 02-Ноя-2015 09:56

           

    [Цитировать]

    Мистер Холмс / Mr. Holmes
    Страна: Великобритания, США
    Жанр: драма, криминал, детектив
    Год выпуска: 2015
    Продолжительность: 01:44:01
    Перевод: Профессиональный (многоголосый закадровый) [Студия "Paradox"]
    Cубтитры: нет
    Режиссер: Билл Кондон / Bill Condon
    В ролях: Иэн МакКеллен, Лора Линни, Майло Паркер, Хироюки Санада, Хэтти Морахэн, Патрик Кеннеди, Роджер Аллам, Филип Дэвис, Фрэнсис де ла Тур, Чарльз Мэддокс, Такако Акаши, Джон Сешнс, Майкл Калкин, Дэвид Фокс, Оливер Девоти, Майк Бернсайд, Николас Роу, Сэм Колсон, Фрэнсис Барбер, Гермиона Корфилд...
    Описание: Действие развернется в 1947 году, а речь в фильме пойдет об отошедшем от дел Шерлоке Холмсе, живущем в сонной деревушке в Сассексе вместе с горничной миссис Манро и сыном, который занимается сыском в качестве хобби. Несмотря на уединенный образ жизни, знаменитому сыщику с Бейкер-стрит по-прежнему не дает покоя тайна так и нераскрытого 50 лет назад дела.




    Качество видео: HDRip
    Формат видео: AVI
    Видео: 720x304 (2.37:1), 23.976 fps, XviD build 50 ~1679 kbps avg, 0.32 bit/pixel
    Аудио: 48 kHz, AC3 Dolby Digital, 2/0 (L,R) ch, ~192 kbps

    MediaInfo

    Format : AVI
    Format/Info : Audio Video Interleave
    File size : 1.37 GiB
    Duration : 1h 44mn
    Overall bit rate : 1 881 Kbps
    Writing application : VirtualDubMod 1.5.10.2 (build 2540/release)
    Writing library : VirtualDubMod build 2540/release
    Video
    ID : 0
    Format : MPEG-4 Visual
    Format profile : Advanced Simple@L5
    Format settings, BVOP : 2
    Format settings, QPel : No
    Format settings, GMC : No warppoints
    Format settings, Matrix : Custom
    Codec ID : XVID
    Codec ID/Hint : XviD
    Duration : 1h 44mn
    Bit rate : 1 680 Kbps
    Width : 720 pixels
    Height : 304 pixels
    Display aspect ratio : 2.35:1
    Frame rate : 23.976 fps
    Color space : YUV
    Chroma subsampling : 4:2:0
    Bit depth : 8 bits
    Scan type : Progressive
    Compression mode : Lossy
    Bits/(Pixel*Frame) : 0.320
    Stream size : 1.22 GiB (89%)
    Writing library : XviD 1.2.1 (UTC 2008-12-04)
    Audio
    ID : 1
    Format : AC-3
    Format/Info : Audio Coding 3
    Mode extension : CM (complete main)
    Format settings, Endianness : Big
    Codec ID : 2000
    Duration : 1h 44mn
    Bit rate mode : Constant
    Bit rate : 192 Kbps
    Channel(s) : 2 channels
    Channel positions : Front: L R
    Sampling rate : 48.0 KHz
    Bit depth : 16 bits
    Compression mode : Lossy
    Stream size : 143 MiB (10%)
    Alignment : Split accross interleaves
    Interleave, duration : 42 ms (1.00 video frame)
    Interleave, preload duration : 500 ms

    Скриншот c названием фильма

    Скриншоты

    Скачать .torrent

    Скачать торрент-файл бесплатно и на максимальной скорости!

    Как скачивать? · Что такое торрент? · Рейтинг и ограничения

    !ВНИМАНИЕ!
    Сайт не распространяет и не хранит электронные версии произведений, а занимается лишь лишь предоставлением доступа к создаваемому пользователями каталогу ссылок на торрент-файлы, которые содержат только списки хеш-сумм, убедительная просьба с жалобами обращаться напрямую к пользователю. Файлы для обмена на трекере предоставлены пользователями сайта, и администрация не несёт ответственности за их содержание. Просьба не заливать файлы, защищенные авторскими правами, а также файлы нелегального содержания!


    _________________
    [Профиль] [ЛС]
    Показать сообщения:    
    Ответить на тему

    Текущее время: Сегодня, в 12:58

    Часовой пояс: GMT + 2



    Вы не можете начинать темы
    Вы не можете отвечать на сообщения
    Вы не можете редактировать свои сообщения
    Вы не можете удалять свои сообщения
    Вы не можете голосовать в опросах
    Вы не можете прикреплять файлы к сообщениям
    Вы не можете скачивать файлы