BitTorrentTracker PerecTracker.org
BitTorrentTracker PerecTracker.org
    
Регистрация  ·  Вход
 
 · 
Забыли пароль?

  • Тема (Глеб Панфилов) [1979, драма, DVDRip-AVC]

    Ответить на тему
     
    Автор Сообщение

    Light

    Создавать темы 01-Ноя-2015 21:20

           

    [Цитировать]

    Тема-Жанр: драма
    Год выпуска: 1979
    Продолжительность: 01:33:23
    Субтитры: английские-Режиссёр: Глеб Панфилов-В ролях:
    Михаил Ульянов, Инна Чурикова, Станислав Любшин, Евгений Весник, Евгения Нечаева, Наталья Селезнева, Сергей Никоненко, Вадим Федулов
    Описание:
    Драматург Ким Есенин, переживающий творческий кризис, приезжает в старинный русский город Суздаль. В краеведческом музее встречает филолога Александру. Долгие беседы и неподдельная искренность собеседницы рождают в нем большие чувства. Случайно Есенин становится свидетелем чужой любви. Он потрясен этим сложным конфликтом и невыдуманными проблемами, где нет места ни меланхолиям, ни депрессиям. В сложившейся ситуации герой решает ехать в Москву...-Исходник | Сэмпл | Кинопоиск-Качество видео: DVDRip-AVC, благодарю andrmaj132 за исходный материал.
    Формат видео: MKV
    Видео: x264 (High@L4.1); 718@765x556, Display aspect ratio 1.376:1, 25.000 fps, 1970 Kbps
    Аудио: Оригинал: AC-3; 16 bit 48 Khz; 2.0 ch 256 Kbps; CBR
    Формат субтитров: softsub (SRT)
    MediaInfo

    -

    x264 log

    avs [info]: 718x556p 16:15 @ 25/1 fps (cfr)
    x264 [info]: using SAR=16/15
    x264 [info]: using cpu capabilities: MMX2 SSE2Fast SSSE3 SSE4.2
    x264 [info]: profile High, level 4.1
    x264 [info]: frame I:657 Avg QP:16.15 size: 52396
    x264 [info]: frame P:23938 Avg QP:18.21 size: 21178
    x264 [info]: frame B:115482 Avg QP:20.43 size: 7266
    x264 [info]: consecutive B-frames: 0.9% 1.2% 2.9% 4.4% 6.8% 59.4% 7.4% 3.4% 5.3% 1.0% 1.7% 4.6% 0.5% 0.3% 0.3%
    x264 [info]: mb I I16..4: 7.0% 78.5% 14.6%
    x264 [info]: mb P I16..4: 0.1% 7.6% 0.5% P16..4: 34.3% 39.3% 15.7% 1.9% 0.2% skip: 0.4%
    x264 [info]: mb B I16..4: 0.0% 0.6% 0.0% B16..8: 37.2% 21.3% 3.4% direct:10.1% skip:27.4% L0:45.1% L1:37.7% BI:17.1%
    x264 [info]: 8x8 transform intra:90.3% inter:53.6%
    x264 [info]: direct mvs spatial:99.3% temporal:0.7%
    x264 [info]: coded y,uvDC,uvAC intra: 98.0% 72.1% 39.7% inter: 33.0% 21.8% 4.4%
    x264 [info]: i16 v,h,dc,p: 12% 13% 21% 54%
    x264 [info]: i8 v,h,dc,ddl,ddr,vr,hd,vl,hu: 13% 9% 12% 9% 12% 11% 11% 11% 13%
    x264 [info]: i4 v,h,dc,ddl,ddr,vr,hd,vl,hu: 17% 8% 3% 9% 14% 14% 12% 11% 11%
    x264 [info]: i8c dc,h,v,p: 31% 30% 24% 14%
    x264 [info]: Weighted P-Frames: Y:21.5% UV:6.7%
    x264 [info]: ref P L0: 28.9% 7.7% 15.5% 7.9% 7.5% 5.6% 5.6% 3.1% 3.2% 2.5% 2.7% 2.2% 2.3% 1.9% 2.1% 1.3%
    x264 [info]: ref B L0: 59.3% 13.8% 6.6% 4.1% 3.0% 2.9% 2.2% 1.6% 1.3% 1.3% 1.1% 1.1% 0.9% 0.6% 0.2%
    x264 [info]: ref B L1: 91.4% 8.6%
    x264 [info]: kb/s:1970.98
    x264 [total]: encoded 140077 frames, 13.76 fps, 1970.98 kb/s
    -General
    Unique ID : 198780866011655692316876177912199295635 (0x958BCD5E70EEACC287F321AD0F9EB293)
    Complete name : Тема.1979.mkv
    Format : Matroska
    Format version : Version 2
    File size : 1.45 GiB
    Duration : 1h 33mn
    Overall bit rate : 2 229 Kbps
    Movie name : «Тема»
    Encoded date : UTC 2015-11-01 12:05:05
    Writing application : mkvmerge v5.8.0 ('No Sleep / Pillow') built on Sep 2 2012 15:37:04
    Writing library : libebml v1.2.3 + libmatroska v1.3.0
    Comment : DVDRip-AVC
    Originally released : October 26th 2015
    Encoded by : george$t®
    Video
    ID : 1
    Format : AVC
    Format/Info : Advanced Video Codec
    Format profile : High@L4.1
    Format settings, CABAC : Yes
    Format settings, ReFrames : 16 frames
    Codec ID : V_MPEG4/ISO/AVC
    Duration : 1h 33mn
    Bit rate : 1 970 Kbps
    Width : 718 pixels
    Height : 556 pixels
    Display aspect ratio : 1.376
    Original display aspect rat : 1.377
    Frame rate mode : Constant
    Frame rate : 25.000 fps
    Color space : YUV
    Chroma subsampling : 4:2:0
    Bit depth : 8 bits
    Scan type : Progressive
    Bits/(Pixel*Frame) : 0.197
    Stream size : 1.26 GiB (87%)
    Title : Тема.1979
    Writing library : x264 core 148 r2579kMod 73ae2d1
    Encoding settings : cabac=1 / ref=16 / deblock=1:-2:-1 / analyse=0x3:0x133 / me=umh / subme=11 / psy=1 / fade_compensate=0.00 / psy_rd=1.02:0.15 / mixed_ref=1 / me_range=32 / chroma_me=1 / trellis=2 / 8x8dct=1 / cqm=0 / deadzone=21,11 / fast_pskip=0 / chroma_qp_offset=-3 / threads=12 / lookahead_threads=3 / sliced_threads=0 / nr=0 / decimate=0 / interlaced=0 / bluray_compat=0 / constrained_intra=0 / fgo=0 / bframes=14 / b_pyramid=2 / b_adapt=2 / b_bias=0 / direct=3 / weightb=1 / open_gop=0 / weightp=2 / keyint=250 / keyint_min=25 / scenecut=40 / intra_refresh=0 / rc_lookahead=40 / rc=2pass / mbtree=0 / bitrate=1970 / ratetol=1.0 / qcomp=0.60 / qpmin=0 / qpmax=69 / qpstep=4 / cplxblur=20.0 / qblur=0.5 / vbv_maxrate=50000 / vbv_bufsize=62500 / nal_hrd=none / filler=0 / ip_ratio=1.25 / pb_ratio=1.30 / aq=2:0.90
    Language : Russian
    Default : Yes
    Forced : No
    Color primaries : BT.601 PAL
    Transfer characteristics : BT.470 System B, BT.470 System G
    Matrix coefficients : BT.601
    Color range : Limited
    Audio
    ID : 2
    Format : AC-3
    Format/Info : Audio Coding 3
    Mode extension : CM (complete main)
    Format settings, Endianness : Big
    Codec ID : A_AC3
    Duration : 1h 33mn
    Bit rate mode : Constant
    Bit rate : 256 Kbps
    Channel(s) : 2 channels
    Channel positions : Front: L R
    Sampling rate : 48.0 KHz
    Bit depth : 16 bits
    Compression mode : Lossy
    Stream size : 171 MiB (11%)
    Title : Оригинал: AC-3; 16 bit 48 Khz; 2.0 ch 256 Kbps; CBR
    Language : Russian
    Default : Yes
    Forced : No
    Text
    ID : 3
    Format : UTF-8
    Codec ID : S_TEXT/UTF8
    Codec ID/Info : UTF-8 Plain Text
    Title : Субтитры английские
    Language : English
    Default : No
    Forced : No
    Menu
    00:00:00.000 : ru:Глава I
    00:04:56.160 : ru:Глава II
    00:13:52.000 : ru:Глава III
    00:20:31.120 : ru:Глава IV
    00:28:01.240 : ru:Глава V
    00:36:17.080 : ru:Глава VI
    00:45:03.160 : ru:Глава VII
    00:52:21.960 : ru:Глава VIII
    00:59:44.400 : ru:Глава IX
    01:08:41.280 : ru:Глава X
    01:18:21.840 : ru:Глава XI
    01:25:39.120 : ru:Глава XII
    Скачать .torrent

    Скачать торрент-файл бесплатно и на максимальной скорости!

    Как скачивать? · Что такое торрент? · Рейтинг и ограничения

    !ВНИМАНИЕ!
    Сайт не распространяет и не хранит электронные версии произведений, а занимается лишь лишь предоставлением доступа к создаваемому пользователями каталогу ссылок на торрент-файлы, которые содержат только списки хеш-сумм, убедительная просьба с жалобами обращаться напрямую к пользователю. Файлы для обмена на трекере предоставлены пользователями сайта, и администрация не несёт ответственности за их содержание. Просьба не заливать файлы, защищенные авторскими правами, а также файлы нелегального содержания!


    _________________
    [Профиль] [ЛС]
    Показать сообщения:    
    Ответить на тему

    Текущее время: Сегодня, в 18:12

    Часовой пояс: GMT + 2



    Вы не можете начинать темы
    Вы не можете отвечать на сообщения
    Вы не можете редактировать свои сообщения
    Вы не можете удалять свои сообщения
    Вы не можете голосовать в опросах
    Вы не можете прикреплять файлы к сообщениям
    Вы не можете скачивать файлы