BitTorrentTracker PerecTracker.org
BitTorrentTracker PerecTracker.org
    
Регистрация  ·  Вход
 
 · 
Забыли пароль?

  • Переправа 2 / The Crossing 2 (Джон Ву / John Woo ) [2015, США, Драма, WEB-DLRip, SD (480p)] DUB

    Ответить на тему
     
    Автор Сообщение

    rechyn

    Создавать темы 01-Ноя-2015 17:07

           

    [Цитировать]

    Переправа 2 / The Crossing 2
    -
    6.00 / 10
    -Год выпуска: 2015
    Страна: США
    Жанр: Драма
    Продолжительность: 02:06:16
    Перевод: Дублированный (iTunes)
    Оригинальная аудиодорожка: Нет
    Режиссёр: Джон Ву
    Сценарий: Хуи-Линг Уэнг
    Продюсер: Тэжэньцэ Чан, Эргоу Конг, Ки Лин
    Оператор: Чжао Фэй
    Композитор: Таро Ивасиро
    Художник: Хорас Ма
    Монтаж: Исмаэль Гомес III
    В ролях: Такэси Канэсиро, Чжан Цзыи, Тун Давэй, Масами Нагасава, Фрэнк М. Эхерн, Шан Конг, Джек Као, Хитоми Куроки, Боуи Лам, Вэй Ли
    Сборы в России: $2 648
    Мировая премьера: 30 июля 2015
    Премьера (РФ): 22 октября 2015, «АКМ»
    Описание: Герои фильма уже поднялись на борт злополучного корабля «Тайпин». Как и остальные пассажиры лайнера, они оказались на краю смерти. Всё смешалось в бурном потоке волн: радость и печаль, любовь и ненависть, жизнь и смерть. Кто сможет спастись и вырваться из круговорота трагических событий? А кто навсегда останется погребённым в холодных водах Тайваньского пролива?-Качество исходника: WEB-DL 1080p
    Качество: WEB-DLRip
    Тип: SD (480p)
    Контейнер: M4V
    Видео: H.264, 852х356 анамоф 640x356, 2.40:1, 1 200 Kbps, 23.976 fps
    Аудио: Русский/Дублированный (iTunes), AAC / 2.0 / 157 Kbps / 48.0 KHz
    -

    iTunes Meta Tags

    Sort Name: Переправа 2
    XID: Apple:vendor_id:2015-842783
    contentID: 1049864539
    Copyright: © 2015 Beijing Galloping Horse Film Co. Ltd.
    Screenwriters: Хуи-Линг Уэнг
    Producers: Тэжэньцэ Чан, Эргоу Конг, Ки Лин
    Director: Джон Ву
    Cast: Такэси Канэсиро, Чжан Цзыи, Тун Давэй, Масами Нагасава, Фрэнк М. Эхерн, Шан Конг, Джек Као, Хитоми Куроки, Боуи Лам, Вэй Ли
    Studio: Beijing Galloping Horse Film and TV Production, China Film Group Corporation, Lion Rock Productions, Zhejiang Huace Film and TV
    Rating: 134
    Long Description: Герои фильма уже поднялись на борт злополучного корабля \"Тайпин\". Как и остальные пассажиры лайнера, они оказались на краю смерти. Всё смешалось в бурном потоке волн: радость и печаль, любовь и ненависть, жизнь и смерть. Кто сможет спастись и вырваться из круговорота трагических событий? А кто навсегда останется погребённым в холодных водах Тайваньского пролива?
    Description: Герои фильма уже поднялись на борт злополучного корабля \"Тайпин\". Как и остальные пассажиры лайнера, они оказались на краю смерти. Всё смешалось в бурном потоке волн: радость и печаль, любовь и ненависть, жизнь и смерть. Кто сможет спастись и вырваться из круговорота трагических событий? А кто навсегда останется погребённым в холодных водах Тайваньского пролива?
    Release Date: 2015-07-30T08:00:00Z
    Genre: Драма
    Artist: Джон Ву
    Name: Переправа 2

    MediaInfo

    General
    Complete name : /Users/imac/HandBrake/Pereprava.2.(480p).(pk).m4v
    Format : MPEG-4
    Codec ID : M4V
    File size : 1.20 GiB
    Duration : 2h 6mn
    Overall bit rate mode : Variable
    Overall bit rate : 1 360 Kbps
    Movie name : Переправа 2
    Performer : Джон Ву
    Director : Джон Ву
    Actor : Такэси Канэсиро / Чжан Цзыи / Тун Давэй / Масами Нагасава / Фрэнк М. Эхерн / Шан Конг / Джек Као / Хитоми Куроки / Боуи Лам / Вэй Ли
    Screenplay by : Хуи-Линг Уэнг
    Producer : Тэжэньцэ Чан / Эргоу Конг / Ки Лин
    Production studio : Beijing Galloping Horse Film and TV Production, China Film Group Corporation, Lion Rock Productions, Zhejiang Huace Film and TV
    Genre : Драма
    ContentType : Short Film
    Description : Герои фильма уже поднялись на борт злополучного корабля \"Тайпин\". Как и остальные пассажиры лайнера, они оказались на краю смерти. Всё смешалось в бурном потоке волн: радость и печаль, любовь и ненависть, жизнь и смерть. Кто сможет спастись и вырваться из круговорота трагических событий? А кто навсегда останется погребённым в холодных водах Тайваньского пролива?
    Recorded date : UTC 2015-07-30 08:00:00
    Encoded date : UTC 2015-11-01 09:39:58
    Tagged date : UTC 2015-11-01 09:40:44
    Copyright : © 2015 Beijing Galloping Horse Film Co. Ltd.
    Cover : Yes
    Rating : None
    Title/Sort : Переправа 2
    LongDescription : Герои фильма уже поднялись на борт злополучного корабля \"Тайпин\". Как и остальные пассажиры лайнера, они оказались на краю смерти. Всё смешалось в бурном потоке волн: радость и печаль, любовь и ненависть, жизнь и смерть. Кто сможет спастись и вырваться из круговорота трагических событий? А кто навсегда останется погребённым в холодных водах Тайваньского пролива?
    AppleStoreCatalogID : 1049864539
    Vendor : Apple:vendor_id:2015-842783
    ContentRating : ru-movie|12+|200|
    Video #1
    ID : 1
    Format : AVC
    Format/Info : Advanced Video Codec
    Format profile : Baseline@L3
    Format settings, CABAC : No
    Format settings, ReFrames : 2 frames
    Codec ID : avc1
    Codec ID/Info : Advanced Video Coding
    Duration : 2h 6mn
    Bit rate : 1 200 Kbps
    Width : 640 pixels
    Height : 356 pixels
    Display aspect ratio : 2.40:1
    Frame rate mode : Variable
    Frame rate : 23.976 fps
    Minimum frame rate : 23.810 fps
    Maximum frame rate : 24.318 fps
    Color space : YUV
    Chroma subsampling : 4:2:0
    Bit depth : 8 bits
    Scan type : Progressive
    Bits/(Pixel*Frame) : 0.220
    Stream size : 1.06 GiB (88%)
    Title : Main Program
    Writing library : x264 core 142 r2479 dd79a61
    Encoding settings : cabac=0 / ref=2 / deblock=1:0:0 / analyse=0x1:0x111 / me=umh / subme=6 / psy=1 / psy_rd=1.00:0.00 / mixed_ref=1 / me_range=16 / chroma_me=1 / trellis=0 / 8x8dct=0 / cqm=0 / deadzone=21,11 / fast_pskip=1 / chroma_qp_offset=-2 / threads=36 / lookahead_threads=2 / sliced_threads=0 / nr=0 / decimate=1 / interlaced=0 / bluray_compat=0 / constrained_intra=0 / bframes=0 / weightp=0 / keyint=240 / keyint_min=24 / scenecut=40 / intra_refresh=0 / rc_lookahead=40 / rc=2pass / mbtree=1 / bitrate=1200 / ratetol=1.0 / qcomp=0.60 / qpmin=0 / qpmax=69 / qpstep=4 / cplxblur=20.0 / qblur=0.5 / vbv_maxrate=5000 / vbv_bufsize=5000 / nal_hrd=none / filler=0 / ip_ratio=1.40 / aq=1:1.00
    Language : Chinese
    Encoded date : UTC 2015-11-01 09:39:58
    Tagged date : UTC 2015-11-01 09:40:02
    Color range : Limited
    Color primaries : BT.709
    Transfer characteristics : BT.709
    Matrix coefficients : BT.709
    Video #2
    ID : 4
    Format : JPEG
    Codec ID : jpeg
    Duration : 2h 6mn
    Bit rate mode : Variable
    Bit rate : 1 038 bps
    Width : 640 pixels
    Height : 267 pixels
    Display aspect ratio : 2.40:1
    Frame rate mode : Variable
    Frame rate : 0.003 fps
    Minimum frame rate : 0.002 fps
    Maximum frame rate : 0.003 fps
    Color space : YUV
    Chroma subsampling : 4:2:0
    Bit depth : 8 bits
    Compression mode : Lossy
    Bits/(Pixel*Frame) : 2.025
    Stream size : 845 KiB (0%)
    Title : Chapter Images
    Language : Chinese
    Encoded date : UTC 2015-11-01 09:40:15
    Tagged date : UTC 2015-11-01 09:40:16
    Audio
    ID : 2
    Format : AAC
    Format/Info : Advanced Audio Codec
    Format profile : LC
    Codec ID : 40
    Duration : 2h 6mn
    Bit rate mode : Variable
    Bit rate : 157 Kbps
    Maximum bit rate : 237 Kbps
    Channel(s) : 2 channels
    Channel positions : Front: L R
    Sampling rate : 48.0 KHz
    Compression mode : Lossy
    Stream size : 142 MiB (12%)
    Title : Russian Stereo
    Language : Russian
    Encoded date : UTC 2015-11-01 09:39:58
    Tagged date : UTC 2015-11-01 09:40:12
    Menu #1
    00:00:00.000 : Глава 1
    00:06:19.000 : Глава 2
    00:12:30.000 : Глава 3
    00:18:49.000 : Глава 4
    00:26:14.000 : Глава 5
    00:31:39.000 : Глава 6
    00:38:04.000 : Глава 7
    00:43:28.000 : Глава 8
    00:49:38.000 : Глава 9
    00:56:25.000 : Глава 10
    01:01:28.000 : Глава 11
    01:06:52.000 : Глава 12
    01:11:55.000 : Глава 13
    01:18:06.000 : Глава 14
    01:24:28.000 : Глава 15
    01:29:57.000 : Глава 16
    01:36:28.000 : Глава 17
    01:42:32.000 : Глава 18
    01:50:07.000 : Глава 19
    01:55:50.000 : Глава 20
    Menu #2
    ID : 3
    Codec ID : text
    Duration : 2h 6mn
    Language : Russian
    Encoded date : UTC 2015-11-01 09:40:12
    Tagged date : UTC 2015-11-01 09:40:12
    00:00:00.000 : Глава 1
    00:06:19.000 : Глава 2
    00:12:30.000 : Глава 3
    00:18:49.000 : Глава 4
    00:26:14.000 : Глава 5
    00:31:39.000 : Глава 6
    00:38:04.000 : Глава 7
    00:43:28.000 : Глава 8
    00:49:38.000 : Глава 9
    00:56:25.000 : Глава 10
    01:01:28.000 : Глава 11
    01:06:52.000 : Глава 12
    01:11:55.000 : Глава 13
    01:18:06.000 : Глава 14
    01:24:28.000 : Глава 15
    01:29:57.000 : Глава 16
    01:36:28.000 : Глава 17
    01:42:32.000 : Глава 18
    01:50:07.000 : Глава 19
    01:55:50.000 : Глава 20
    Bit rate mode : VBR

    x264 лог

    x264 [info]: frame I:4867  Avg QP:21.62  size: 18077
    x264 [info]: frame P:176764 Avg QP:22.45  size:  5919
    x264 [info]: mb I  I16..4: 26.7%  0.0% 73.3%
    x264 [info]: mb P  I16..4:  1.5%  0.0%  5.0%  P16..4: 42.6% 19.0%  7.4%  0.0%  0.0%    skip:24.5%
    x264 [info]: coded y,uvDC,uvAC intra: 66.3% 61.3% 24.2% inter: 23.4% 15.2% 1.3%
    x264 [info]: i16 v,h,dc,p: 38% 18% 10% 34%
    x264 [info]: i4 v,h,dc,ddl,ddr,vr,hd,vl,hu: 30% 14% 16%  6%  8%  8%  7%  6%  5%
    x264 [info]: i8c dc,h,v,p: 55% 16% 23%  6%
    x264 [info]: ref P L0: 76.4% 23.6%
    x264 [info]: kb/s:1197.79

    Скриншоты

    -

    Релиз подготовлен для просмотра на Apple TV, iPad, iPhone, iPod Touch.
    Для просмотра данного релиза на компьютере с ОС Windows рекомендуется использовать VLC media player
    Скачать .torrent

    Скачать торрент-файл бесплатно и на максимальной скорости!

    Как скачивать? · Что такое торрент? · Рейтинг и ограничения

    !ВНИМАНИЕ!
    Сайт не распространяет и не хранит электронные версии произведений, а занимается лишь лишь предоставлением доступа к создаваемому пользователями каталогу ссылок на торрент-файлы, которые содержат только списки хеш-сумм, убедительная просьба с жалобами обращаться напрямую к пользователю. Файлы для обмена на трекере предоставлены пользователями сайта, и администрация не несёт ответственности за их содержание. Просьба не заливать файлы, защищенные авторскими правами, а также файлы нелегального содержания!


    _________________
    [Профиль] [ЛС]
    Показать сообщения:    
    Ответить на тему

    Текущее время: Сегодня, в 07:53

    Часовой пояс: GMT + 2



    Вы не можете начинать темы
    Вы не можете отвечать на сообщения
    Вы не можете редактировать свои сообщения
    Вы не можете удалять свои сообщения
    Вы не можете голосовать в опросах
    Вы не можете прикреплять файлы к сообщениям
    Вы не можете скачивать файлы