BitTorrentTracker PerecTracker.org
BitTorrentTracker PerecTracker.org
    
Регистрация  ·  Вход
 
 · 
Забыли пароль?

  • Нянька / Der Nanny (Маттиас Швайгхёфер / Matthias Schweighöfer , Торстен Кюнстлер / Torsten Künstler) [2015, Германия, комедия, HDRip] VO (Виктор Береговых)

    Ответить на тему
     
    Автор Сообщение

    rechyn

    Создавать темы 01-Ноя-2015 12:55

           

    [Цитировать]

    Нянька / Der Nanny
    Страна: Германия
    Жанр: комедия
    Год выпуска: 2015
    Продолжительность: 01:50:19
    Перевод: Одноголосый закадровый (Виктор Береговых) - по переводу Михаила Васильева
    Cубтитры: нет
    Режиссер: Маттиас Швайгхёфер / Matthias Schweighöfer , Торстен Кюнстлер / Torsten Künstler
    В ролях: Маттиас Швайгхёфер, Милан Пешель, Паула Хартманн, Арвед Фризе, Йоко Винтершайдт, Саша Александер, Илька Бессин, Кирстен Блок
    Описание: Клеменс Клина - крупный бизнесмен. Он планирует снести старые дома в центре Берлина и застроить район элитным жильем. Ему противостоит группа инициативных граждан во главе с Рольфом.Потеряв собственный дом, Рольф отправляется в дом Клина с мыслью отомстить, проще говоря набить морду.Клина впускает Рольфа в свой дом и приняв его за няньку из агентства, предлагает работу.И тут в голову Рольфу приходит мысль отомстить более изощренно, так сказать изнутри.Он соглашается стать нянькой, еще не зная о том, что он уже 8 няня за последний год.У Клеменса двое очень проблемных детей, которые давно уже превращают жизнь своего отца в страшный сон...
    Сэмпл: https://www.sendspace.com/file/vr3220
    Качество видео: HDRip
    Формат видео: AVI
    Видео: XviD, 720x304 (2.35:1), 23.976 fps, 1510 kbps avg, 0.288 bit/pixel
    Аудио: AC3, 48.0 KHz, 256 Kbps, 2 channels

    MediaInfo

    Format : AVI
    Format/Info : Audio Video Interleave
    File size : 1.37 GiB
    Duration : 1h 50mn
    Overall bit rate : 1 775 Kbps
    Writing application : VirtualDubMod 1.5.10.2 (build 2540/release)
    Writing library : VirtualDubMod build 2540/release
    Video
    ID : 0
    Format : MPEG-4 Visual
    Format profile : AdvancedSimple@L5
    Format settings, BVOP : Yes
    Format settings, QPel : No
    Format settings, GMC : No warppoints
    Format settings, Matrix : Default (H.263)
    Codec ID : XVID
    Codec ID/Hint : XviD
    Duration : 1h 50mn
    Bit rate : 1 510 Kbps
    Width : 720 pixels
    Height : 304 pixels
    Display aspect ratio : 2.35:1
    Frame rate : 23.976 fps
    Resolution : 24 bits
    Colorimetry : 4:2:0
    Scan type : Progressive
    Bits/(Pixel*Frame) : 0.288
    Stream size : 1.16 GiB (85%)
    Writing library : XviD 1.2.1 (UTC 2008-12-04)
    Audio
    ID : 1
    Format : AC-3
    Format/Info : Audio Coding 3
    Codec ID : 2000
    Duration : 1h 50mn
    Bit rate mode : Constant
    Bit rate : 256 Kbps
    Channel(s) : 2 channels
    Channel positions : L R
    Sampling rate : 48.0 KHz
    Stream size : 202 MiB (14%)
    Alignment : Split accross interleaves
    Interleave, duration : 42 ms (1.00 video frame)
    Interleave, preload duration : 500 ms

    Скриншот c названием фильма

    Скриншоты

    Скачать .torrent

    Скачать торрент-файл бесплатно и на максимальной скорости!

    Как скачивать? · Что такое торрент? · Рейтинг и ограничения

    !ВНИМАНИЕ!
    Сайт не распространяет и не хранит электронные версии произведений, а занимается лишь лишь предоставлением доступа к создаваемому пользователями каталогу ссылок на торрент-файлы, которые содержат только списки хеш-сумм, убедительная просьба с жалобами обращаться напрямую к пользователю. Файлы для обмена на трекере предоставлены пользователями сайта, и администрация не несёт ответственности за их содержание. Просьба не заливать файлы, защищенные авторскими правами, а также файлы нелегального содержания!


    _________________
    [Профиль] [ЛС]
    Показать сообщения:    
    Ответить на тему

    Текущее время: Сегодня, в 22:02

    Часовой пояс: GMT + 2



    Вы не можете начинать темы
    Вы не можете отвечать на сообщения
    Вы не можете редактировать свои сообщения
    Вы не можете удалять свои сообщения
    Вы не можете голосовать в опросах
    Вы не можете прикреплять файлы к сообщениям
    Вы не можете скачивать файлы