BitTorrentTracker PerecTracker.org
BitTorrentTracker PerecTracker.org
    
Регистрация  ·  Вход
 
 · 
Забыли пароль?

  • Торренте 5: Операция Евровегас / Torrente V: Mision Eurovegas (Сантьяго Сегура / Santiago Segura) [2014, Испания, Боевик, Комедия, HDRip] VO (Васька Куролесов)

    Ответить на тему
     
    Автор Сообщение

    Light

    Создавать темы 01-Ноя-2015 04:31

           

    [Цитировать]

    Торренте 5: Операция Евровегас / Torrente V: Mision Eurovegas
    Страна: Испания
    Жанр: Боевик, Комедия
    Год выпуска: 2014
    Продолжительность: 01:42:02
    Перевод: Одноголосый закадровый Васька Куролесов по субтитрам МЕГАПЫХАРЬ
    Cубтитры: нет
    Оригинальная аудиодорожка: нет
    Режиссер: Сантьяго Сегура / Santiago Segura
    В ролях: Сантьяго Сегура, Хулиан Лопес, Хесулин де Убрике, Алек Болдуин, Дамиан Рамос, Луис Карлос, Альваро Тортоза, Каньита Брава, Хосе Мария Рубио
    Описание: На что только не заставит пойти нужда. Герои фильма Торренте 5 решаются на рискованное предприятие. Желание раз и навсегда положить конец проблемам с финансами толкает компанию единомышленников на создание идеального плана обогащения.
    Доп.инфа: отдельное спасибо Guyver, Симоннс, ngame, ALP за помощь в создании проекта!

    Семпл
    Качество видео: HDRip
    Формат видео: AVI
    Видео: XviD, 1852 Кбит/с, 720x304, 23.976 fps
    Аудио: AC3, 2 ch, 192 Кбит/с, 48.0 KHz
    Ненорматив!
    После титров концовка!
    Релиз:

    MediaInfo

    General
    Complete name : G:\Torrente V_HDRip_KypoJIecoB.avi
    Format : AVI
    Format/Info : Audio Video Interleave
    File size : 1.46 GiB
    Duration : 1h 42mn
    Overall bit rate : 2 054 Kbps
    Video
    ID : 0
    Format : MPEG-4 Visual
    Format profile : Advanced Simple@L5
    Format settings, BVOP : 2
    Format settings, QPel : No
    Format settings, GMC : No warppoints
    Format settings, Matrix : Default (H.263)
    Codec ID : XVID
    Codec ID/Hint : XviD
    Duration : 1h 42mn
    Bit rate : 1 852 Kbps
    Width : 720 pixels
    Height : 304 pixels
    Display aspect ratio : 2.35:1
    Frame rate : 23.976 fps
    Color space : YUV
    Chroma subsampling : 4:2:0
    Bit depth : 8 bits
    Scan type : Progressive
    Compression mode : Lossy
    Bits/(Pixel*Frame) : 0.353
    Stream size : 1.32 GiB (90%)
    Writing library : XviD 67
    Audio
    ID : 1
    Format : AC-3
    Format/Info : Audio Coding 3
    Mode extension : CM (complete main)
    Format settings, Endianness : Big
    Codec ID : 2000
    Duration : 1h 42mn
    Bit rate mode : Constant
    Bit rate : 192 Kbps
    Channel(s) : 2 channels
    Channel positions : Front: L R
    Sampling rate : 48.0 KHz
    Compression mode : Lossy
    Stream size : 140 MiB (9%)
    Alignment : Split accross interleaves
    Interleave, duration : 42 ms (1.00 video frame)
    Interleave, preload duration : 500 ms

    Скриншот c названием фильма

    Скриншоты

    Скачать .torrent

    Скачать торрент-файл бесплатно и на максимальной скорости!

    Как скачивать? · Что такое торрент? · Рейтинг и ограничения

    !ВНИМАНИЕ!
    Сайт не распространяет и не хранит электронные версии произведений, а занимается лишь лишь предоставлением доступа к создаваемому пользователями каталогу ссылок на торрент-файлы, которые содержат только списки хеш-сумм, убедительная просьба с жалобами обращаться напрямую к пользователю. Файлы для обмена на трекере предоставлены пользователями сайта, и администрация не несёт ответственности за их содержание. Просьба не заливать файлы, защищенные авторскими правами, а также файлы нелегального содержания!


    _________________
    [Профиль] [ЛС]
    Показать сообщения:    
    Ответить на тему

    Текущее время: Сегодня, в 20:35

    Часовой пояс: GMT + 2



    Вы не можете начинать темы
    Вы не можете отвечать на сообщения
    Вы не можете редактировать свои сообщения
    Вы не можете удалять свои сообщения
    Вы не можете голосовать в опросах
    Вы не можете прикреплять файлы к сообщениям
    Вы не можете скачивать файлы