BitTorrentTracker PerecTracker.org
BitTorrentTracker PerecTracker.org
    
Регистрация  ·  Вход
 
 · 
Забыли пароль?

  • Дела и люди (Александр Мачерет) [1932, драма, SATRip]

    Ответить на тему
     
    Автор Сообщение

    Light

    Создавать темы 01-Ноя-2015 00:19

           

    [Цитировать]

    Дела и люди
    Год выпуска: 1932
    Жанр: драма
    Продолжительность: 01:28:42.040 (133051 frames)
    Субтитры: нет
    Режиссер: Александр Мачерет
    В ролях: Николай Охлопков, Виктор Станицын, Александр Гейрот, Софья Яковлева, Василий Ковригин, Сергей Поляков (V), Фёдор Курихин, Павел Оленев
    Описание: На одно из крупных строительств первой пятилетки приезжает американский специалист. Встав во главе бригады, он добивается высоких показателей. Но, освоив новую технологию, рабочие участка Захарова в следующем соревновании с американцем одерживают победу.
    Качество: SATRip
    Формат: AVI
    Видео кодек: XviD
    Аудио кодек: АС3
    Видео: 704x528 (1.33:1), 25 fps, XviD build 73 ~2145 kbps avg, 0.23 bit/pixel
    Аудио: 48 kHz, AC3 Dolby Digital, 2/0 (L,R) ch, ~192.00 kbps avg

    Скриншоты

    Медиаинфо

    F:\004 Мои раздачи\Дела и люди 1,46\dela_i_ludi_1.46_[torrents.ru]_by_bm11.avi
    General
    Complete name : F:\004 Мои раздачи\Дела и люди 1,46\dela_i_ludi_1.46_[torrents.ru]_by_bm11.avi
    Format : AVI
    Format/Info : Audio Video Interleave
    File size : 1.45 GiB
    Duration : 1h 28mn
    Overall bit rate : 2 347 Kbps
    Director : bm11
    Writing application : VirtualDubMod 1.5.10.3 | www.virtualdub-fr.org || (build 2550/release)
    Video
    Format : MPEG-4 Visual
    Format profile : Streaming Video@L1
    Format settings, BVOP : Yes
    Format settings, QPel : No
    Format settings, GMC : No warppoints
    Format settings, Matrix : Custom
    Codec ID : XVID
    Codec ID/Hint : XviD
    Duration : 1h 28mn
    Bit rate : 2 145 Kbps
    Width : 704 pixels
    Height : 528 pixels
    Display aspect ratio : 4/3
    Frame rate : 25.000 fps
    Resolution : 24 bits
    Colorimetry : 4:2:0
    Scan type : Progressive
    Bits/(Pixel*Frame) : 0.231
    Stream size : 1.33 GiB (91%)
    Writing library : XviD 73
    Audio
    Format : AC-3
    Format/Info : Audio Coding 3
    Codec ID : 2000
    Duration : 1h 28mn
    Bit rate mode : Constant
    Bit rate : 192 Kbps
    Channel(s) : 2 channels
    Channel positions : L R
    Sampling rate : 48.0 KHz
    Stream size : 122 MiB (8%)
    Alignment : Split accross interleaves
    Interleave, duration : 40 ms (1.00 video frame)
    Interleave, preload duration : 500 ms
    Релиз группы:

    -
    -
    Скачать .torrent

    Скачать торрент-файл бесплатно и на максимальной скорости!

    Как скачивать? · Что такое торрент? · Рейтинг и ограничения

    !ВНИМАНИЕ!
    Сайт не распространяет и не хранит электронные версии произведений, а занимается лишь лишь предоставлением доступа к создаваемому пользователями каталогу ссылок на торрент-файлы, которые содержат только списки хеш-сумм, убедительная просьба с жалобами обращаться напрямую к пользователю. Файлы для обмена на трекере предоставлены пользователями сайта, и администрация не несёт ответственности за их содержание. Просьба не заливать файлы, защищенные авторскими правами, а также файлы нелегального содержания!


    _________________
    [Профиль] [ЛС]
    Показать сообщения:    
    Ответить на тему

    Текущее время: Сегодня, в 08:04

    Часовой пояс: GMT + 2



    Вы не можете начинать темы
    Вы не можете отвечать на сообщения
    Вы не можете редактировать свои сообщения
    Вы не можете удалять свои сообщения
    Вы не можете голосовать в опросах
    Вы не можете прикреплять файлы к сообщениям
    Вы не можете скачивать файлы