Register  ·  Log in
Forgot password?

  • Дела и люди (Александр Мачерет) [1932, драма, SATRip]

    Reply to topic
    Author Message


    Post 31-Oct-2015 21:07



    Дела и люди
    Год выпуска: 1932
    Жанр: драма
    Продолжительность: 01:28:42.040 (133051 frames)
    Субтитры: нет
    Режиссер: Александр Мачерет
    В ролях: Николай Охлопков, Виктор Станицын, Александр Гейрот, Софья Яковлева, Василий Ковригин, Сергей Поляков (V), Фёдор Курихин, Павел Оленев
    Описание: На одно из крупных строительств первой пятилетки приезжает американский специалист. Встав во главе бригады, он добивается высоких показателей. Но, освоив новую технологию, рабочие участка Захарова в следующем соревновании с американцем одерживают победу.
    Качество: SATRip
    Формат: AVI
    Видео кодек: XviD
    Аудио кодек: МР3
    Видео: 640x480 (1.33:1), 25 fps, XviD build 73 ~1010 kbps avg, 0.13 bit/pixel
    Аудио: 48 kHz, MPEG Layer 3, 2 ch, ~128.00 kbps avg



    F:\004 Мои раздачи\Дела и люди 745\dela_i_ludi_745_[]_by_bm11.avi
    Complete name : F:\004 Мои раздачи\Дела и люди 745\dela_i_ludi_745_[]_by_bm11.avi
    Format : AVI
    Format/Info : Audio Video Interleave
    File size : 729 MiB
    Duration : 1h 28mn
    Overall bit rate : 1 149 Kbps
    Director : bm11
    Writing application : VirtualDubModRus (build 2542/release)
    Format : MPEG-4 Visual
    Format profile : Streaming Video@L1
    Format settings, BVOP : Yes
    Format settings, QPel : No
    Format settings, GMC : No warppoints
    Format settings, Matrix : Custom
    Codec ID : XVID
    Codec ID/Hint : XviD
    Duration : 1h 28mn
    Bit rate : 1 011 Kbps
    Width : 640 pixels
    Height : 480 pixels
    Display aspect ratio : 4/3
    Frame rate : 25.000 fps
    Resolution : 24 bits
    Colorimetry : 4:2:0
    Scan type : Progressive
    Bits/(Pixel*Frame) : 0.132
    Stream size : 641 MiB (88%)
    Writing library : XviD 73
    Format : MPEG Audio
    Format version : Version 1
    Format profile : Layer 3
    Codec ID : 55
    Codec ID/Hint : MP3
    Duration : 1h 28mn
    Bit rate mode : Constant
    Bit rate : 128 Kbps
    Minimum bit rate : 128 Kbps
    Channel(s) : 2 channels
    Sampling rate : 48.0 KHz
    Resolution : 16 bits
    Stream size : 81.2 MiB (11%)
    Alignment : Aligned on interleaves
    Interleave, duration : 40 ms (1.00 video frame)
    Interleave, preload duration : 504 ms
    Writing library : LAME3.99r
    Encoding settings : CBR
    Релиз группы:

    Download .torrent

    Download free and at maximum speed!

    How to Download? · What is a torrent? · Ratings and Limitations

    The site does not extend and does not store electronic(digital) versions of products, and only gives access to a reference catalogue created by users on torrent-files which contain only lists of the hash-sums, the earnest entreaty, with complaints(abuse) to access directly to the user. Files for an exchange on tracker are given by users of a site, and the administration does not bear the responsibility for their maintenance. The request to not fill in the files protected by copyrights, and also files of the illegal maintenance!

    [Profile] [PM]
    Display posts from previous:    
    Reply to topic

    The time now is: Today 12:29

    All times are GMT + 3 Hours

    You cannot post new topics in this forum
    You cannot reply to topics in this forum
    You cannot edit your posts in this forum
    You cannot delete your posts in this forum
    You cannot vote in polls in this forum
    You cannot attach files in this forum
    You cannot download files in this forum