Register  ·  Log in
Forgot password?

  • Достоинство / The Timber (Энтони О`Брайэн / Anthony O\'Brien) [2015, США, Драма, приключения, вестерн, HDRip] VO (datynet)

    Reply to topic
    Author Message


    Post 31-Oct-2015 21:07



    Достоинство / The Timber
    Страна: США, ANA Media
    Жанр: Драма, приключения, вестерн
    Год выпуска: 2015
    Продолжительность: 01:20:27
    Перевод: Одноголосый закадровый datynet
    Cубтитры: нет
    Режиссер: Энтони О`Брайэн / Anthony O'Brien
    В ролях: Джеймс Рэнсон, Элиза Ласовски, Марк Кавен, Уильям Гонт, Дэвид Бэйли, Аттила Арпа, Шон О`Хаган, Мариус Флориан, Разван Георгиу, Мария Дойл Кеннеди, Джош Пек
    Описание: Год 1889. В ледяной Аляске, во время золотой лихорадки, братья Самуэль (Джош Пек) и Уайетт (Джеймс Рансон) отправляются в опасное путешествие. Для того, чтобы сохранить честь дома, они должны найти тираничного своего отца, который много лет назад их оставил. Впереди у них куча неприятностей с жестокими бандитами. Мрачные сцены и сырой климат меркнут перед алчностью, жажды власти и смерти, с которыми они сталкиваются.
    Доп. информация:

    Качество видео: HDRip
    Формат видео: AVI
    Видео: XVID, 1978 kb/s, 720x304, 23.976 fps
    Аудио: Russian : AC3, 448 kb/s (6 ch), 48.0 KHz


    Format : AVI
    Format/Info : Audio Video Interleave
    File size : 1.37 GiB
    Duration : 1h 20mn
    Overall bit rate : 2 436 Kbps
    Writing application : VirtualDubMod (build 2540/release)
    Writing library : VirtualDubMod build 2540/release
    ID : 0
    Format : MPEG-4 Visual
    Format profile : Advanced Simple@L5
    Format settings, BVOP : 2
    Format settings, QPel : No
    Format settings, GMC : No warppoints
    Format settings, Matrix : Default (MPEG)
    Codec ID : XVID
    Codec ID/Hint : XviD
    Duration : 1h 20mn
    Bit rate : 1 979 Kbps
    Width : 720 pixels
    Height : 304 pixels
    Display aspect ratio : 2.35:1
    Frame rate : 23.976 fps
    Color space : YUV
    Chroma subsampling : 4:2:0
    Bit depth : 8 bits
    Scan type : Progressive
    Compression mode : Lossy
    Bits/(Pixel*Frame) : 0.377
    Stream size : 1.11 GiB (81%)
    Writing library : XviD 1.2.1 (UTC 2008-12-04)
    ID : 1
    Format : AC-3
    Format/Info : Audio Coding 3
    Mode extension : CM (complete main)
    Format settings, Endianness : Big
    Codec ID : 2000
    Duration : 1h 20mn
    Bit rate mode : Constant
    Bit rate : 448 Kbps
    Channel(s) : 6 channels
    Channel positions : Front: L C R, Side: L R, LFE
    Sampling rate : 48.0 KHz
    Compression mode : Lossy
    Stream size : 257 MiB (18%)
    Alignment : Split accross interleaves
    Interleave, duration : 42 ms (1.00 video frame)
    Interleave, preload duratio : 500 ms

    Скриншот c названием фильма


    Download .torrent

    Download free and at maximum speed!

    How to Download? · What is a torrent? · Ratings and Limitations

    The site does not extend and does not store electronic(digital) versions of products, and only gives access to a reference catalogue created by users on torrent-files which contain only lists of the hash-sums, the earnest entreaty, with complaints(abuse) to access directly to the user. Files for an exchange on tracker are given by users of a site, and the administration does not bear the responsibility for their maintenance. The request to not fill in the files protected by copyrights, and also files of the illegal maintenance!

    [Profile] [PM]
    Display posts from previous:    
    Reply to topic

    The time now is: Today 22:26

    All times are GMT + 3 Hours

    You cannot post new topics in this forum
    You cannot reply to topics in this forum
    You cannot edit your posts in this forum
    You cannot delete your posts in this forum
    You cannot vote in polls in this forum
    You cannot attach files in this forum
    You cannot download files in this forum