Register  ·  Log in
Forgot password?

  • Стая / The Pack (Ник Робертсон / Nic Robertson) [2015, Австралия, ужасы, триллер, WEB-DLRip] VO

    Reply to topic
    Author Message


    Post 31-Oct-2015 21:07



    Стая / The PackСтрана: Австралия
    Год выпуска: 2015
    Жанр: ужасы, триллер
    Продолжительность: 01:24:34
    Перевод: Одноголосый закадровый Хихидок, по переводу Enigma-Режиссер: Ник Робертсон / Nic Robertson-В ролях: Анна Лизе Филлипс, Джек Кэмпбелл, Киран Томас Макнамара, Кэти Мур, Хэмиш Филлипс, Чарльз Майер
    --Фермер и его семья борются за выживание, когда на их дом нападает стая диких собак.-
    Качество видео: WEB-DLRip
    Исходник: WEB-DLRip 720p
    Формат видео: AVI
    Видео: XviD (1.2.2) 1050kbps 688x288 25.000fps
    Аудио: MP3 128kbps 2ch 16bit 44100khz


    MediaInfoLib - v0.7.62
    Complete name : F:\Мои раздачи 2\Стая (The Pack). 2015г. WEB-DLRip. - kontarik81.avi
    Format : AVI
    Format/Info : Audio Video Interleave
    File size : 719 MiB
    Duration : 1h 24mn
    Overall bit rate : 1 189 Kbps
    Writing application : VirtualDubMod | || (build 2550/release)
    Writing library : VirtualDubMod build 2550/release
    ID : 0
    Format : MPEG-4 Visual
    Format profile : Advanced Simple@L5
    Format settings, BVOP : 1
    Format settings, QPel : No
    Format settings, GMC : No warppoints
    Format settings, Matrix : Default (H.263)
    Codec ID : XVID
    Codec ID/Hint : XviD
    Duration : 1h 24mn
    Bit rate : 1 051 Kbps
    Width : 688 pixels
    Height : 288 pixels
    Display aspect ratio : 2.40:1
    Frame rate : 25.000 fps
    Color space : YUV
    Chroma subsampling : 4:2:0
    Bit depth : 8 bits
    Scan type : Progressive
    Compression mode : Lossy
    Bits/(Pixel*Frame) : 0.212
    Stream size : 636 MiB (88%)
    Writing library : XviD 1.2.1 (UTC 2008-12-04)
    ID : 1
    Format : MPEG Audio
    Format version : Version 1
    Format profile : Layer 3
    Mode : Joint stereo
    Mode extension : MS Stereo
    Codec ID : 55
    Codec ID/Hint : MP3
    Duration : 1h 24mn
    Bit rate mode : Constant
    Bit rate : 128 Kbps
    Channel(s) : 2 channels
    Sampling rate : 44.1 KHz
    Compression mode : Lossy
    Stream size : 77.4 MiB (11%)
    Alignment : Split accross interleaves
    Interleave, duration : 40 ms (1.00 video frame)
    Interleave, preload duration : 500 ms
    Writing library : LAME3.99r
    Encoding settings : -m j -V 4 -q 2 -lowpass 17 -b 128

    Скриншот c названием фильма


    Download .torrent

    Download free and at maximum speed!

    How to Download? · What is a torrent? · Ratings and Limitations

    The site does not extend and does not store electronic(digital) versions of products, and only gives access to a reference catalogue created by users on torrent-files which contain only lists of the hash-sums, the earnest entreaty, with complaints(abuse) to access directly to the user. Files for an exchange on tracker are given by users of a site, and the administration does not bear the responsibility for their maintenance. The request to not fill in the files protected by copyrights, and also files of the illegal maintenance!

    [Profile] [PM]
    Display posts from previous:    
    Reply to topic

    The time now is: Today 02:51

    All times are GMT + 3 Hours

    You cannot post new topics in this forum
    You cannot reply to topics in this forum
    You cannot edit your posts in this forum
    You cannot delete your posts in this forum
    You cannot vote in polls in this forum
    You cannot attach files in this forum
    You cannot download files in this forum