BitTorrentTracker PerecTracker.org
BitTorrentTracker PerecTracker.org
    
Регистрация  ·  Вход
 
 · 
Забыли пароль?

  • Монолог (Илья Авербах) [1972, драма, DVDRip-AVC]

    Ответить на тему
     
    Автор Сообщение

    Light

    Создавать темы 31-Окт-2015 11:54

           

    [Цитировать]

    Монолог-Жанр: драма
    Год выпуска: 1972
    Продолжительность: 01:34:57
    Субтитры: английские-Режиссёр: Илья Авербах-В ролях:
    Михаил Глузский, Маргарита Терехова, Марина Неелова, Станислав Любшин, Евгения Ханаева, Леонид Галлис, Леонид Неведомский, Валерий Матвеев, Эрнст Романов, Елена Захарова, Елена Капица, Вера Кавалерова
    Описание:
    К старому профессору Сретенскому с его устоявшейся жизнью и порой нелепыми, но дорогими сердцу привычками, приезжают его непутевая дочь и юная внучка. О любви и нетерпимости этих людей друг к другу, об умении понимать и прощать…-Сэмпл | -Качество видео: DVDRip-AVC / благодарю Rossiyanin1990 за исходный материал.
    Формат видео: MKV
    Видео: x264 (High@L4.1); 718@765x556, Display aspect ratio 1.376:1, 25.000 fps, 2315 Kbps
    Аудио: Оригинал: AC-3; 16 bit 48 Khz; 2.0 ch 192 Kbps; CBR
    Формат субтитров: softsub (SRT)

    MediaInfo


    -

    x264 log

    avs [info]: 718x556p 16:15 @ 25/1 fps (cfr)
    x264 [info]: using SAR=16/15
    x264 [info]: using cpu capabilities: MMX2 SSE2Fast SSSE3 SSE4.2
    x264 [info]: profile High, level 4.1
    x264 [info]: frame I:725 Avg QP:18.84 size: 47633
    x264 [info]: frame P:29222 Avg QP:20.57 size: 21762
    x264 [info]: frame B:112502 Avg QP:22.62 size: 8700
    x264 [info]: consecutive B-frames: 1.3% 1.6% 6.5% 18.3% 17.4% 42.9% 7.1% 2.9% 1.0% 0.5% 0.4% 0.2%
    x264 [info]: mb I I16..4: 7.3% 76.5% 16.2%
    x264 [info]: mb P I16..4: 0.3% 10.2% 1.2% P16..4: 34.4% 38.0% 11.9% 1.4% 0.1% skip: 2.5%
    x264 [info]: mb B I16..4: 0.0% 1.4% 0.1% B16..8: 36.9% 21.4% 3.1% direct: 9.6% skip:27.5% L0:36.9% L1:42.5% BI:20.6%
    x264 [info]: 8x8 transform intra:87.0% inter:64.0%
    x264 [info]: coded y,uvDC,uvAC intra: 96.4% 84.5% 55.9% inter: 35.5% 29.0% 4.0%
    x264 [info]: i16 v,h,dc,p: 27% 19% 5% 49%
    x264 [info]: i8 v,h,dc,ddl,ddr,vr,hd,vl,hu: 15% 10% 5% 8% 12% 13% 12% 12% 12%
    x264 [info]: i4 v,h,dc,ddl,ddr,vr,hd,vl,hu: 19% 9% 3% 7% 13% 15% 12% 11% 11%
    x264 [info]: i8c dc,h,v,p: 31% 23% 28% 18%
    x264 [info]: Weighted P-Frames: Y:26.8% UV:15.5%
    x264 [info]: ref P L0: 39.0% 12.6% 16.1% 7.0% 5.5% 4.2% 3.5% 1.9% 1.8% 1.6% 1.5% 1.3% 1.2% 1.1% 1.1% 0.8%
    x264 [info]: ref B L0: 81.7% 8.5% 2.9% 1.7% 1.1% 1.0% 0.7% 0.5% 0.4% 0.4% 0.3% 0.3% 0.3% 0.2% 0.1%
    x264 [info]: ref B L1: 96.0% 4.0%
    x264 [info]: kb/s:2315.59
    x264 [total]: encoded 142449 frames, 11.88 fps, 2315.59 kb/s
    -General
    Unique ID : 239640898378973201355572644913644194617 (0xB44928805F14E8D299EF22C0BC7E4B39)
    Complete name : Монолог.1972.mkv
    Format : Matroska
    Format version : Version 2
    File size : 1.66 GiB
    Duration : 1h 34mn
    Overall bit rate : 2 509 Kbps
    Movie name : «Монолог»
    Encoded date : UTC 2015-10-30 11:59:20
    Writing application : mkvmerge v5.8.0 ('No Sleep / Pillow') built on Sep 2 2012 15:37:04
    Writing library : libebml v1.2.3 + libmatroska v1.3.0
    Comment : DVDRip-AVC
    Originally released : October 28th 2015
    Encoded by : george$t®
    Video
    ID : 1
    Format : AVC
    Format/Info : Advanced Video Codec
    Format profile : High@L4.1
    Format settings, CABAC : Yes
    Format settings, ReFrames : 16 frames
    Codec ID : V_MPEG4/ISO/AVC
    Duration : 1h 34mn
    Bit rate : 2 267 Kbps
    Width : 718 pixels
    Height : 556 pixels
    Display aspect ratio : 1.376
    Original display aspect rat : 1.377
    Frame rate mode : Constant
    Frame rate : 25.000 fps
    Color space : YUV
    Chroma subsampling : 4:2:0
    Bit depth : 8 bits
    Scan type : Progressive
    Bits/(Pixel*Frame) : 0.227
    Stream size : 1.50 GiB (90%)
    Title : Монолог.1972
    Writing library : x264 core 148 r2579kMod 73ae2d1
    Encoding settings : cabac=1 / ref=16 / deblock=1:1:-1 / analyse=0x3:0x133 / me=umh / subme=11 / psy=1 / fade_compensate=0.00 / psy_rd=1.05:0.20 / mixed_ref=1 / me_range=32 / chroma_me=1 / trellis=2 / 8x8dct=1 / cqm=0 / deadzone=21,11 / fast_pskip=1 / chroma_qp_offset=-3 / threads=12 / lookahead_threads=3 / sliced_threads=0 / nr=0 / decimate=1 / interlaced=0 / bluray_compat=0 / constrained_intra=0 / fgo=0 / bframes=11 / b_pyramid=2 / b_adapt=2 / b_bias=0 / direct=1 / weightb=1 / open_gop=0 / weightp=2 / keyint=250 / keyint_min=25 / scenecut=40 / intra_refresh=0 / rc_lookahead=40 / rc=crf / mbtree=0 / crf=18.0000 / qcomp=0.60 / qpmin=0 / qpmax=69 / qpstep=4 / vbv_maxrate=50000 / vbv_bufsize=62500 / crf_max=0.0 / nal_hrd=none / filler=0 / ip_ratio=1.30 / pb_ratio=1.20 / aq=2:0.70
    Language : Russian
    Default : Yes
    Forced : No
    Color primaries : BT.601 PAL
    Transfer characteristics : BT.470 System B, BT.470 System G
    Matrix coefficients : BT.601
    Color range : Limited
    Audio
    ID : 2
    Format : AC-3
    Format/Info : Audio Coding 3
    Mode extension : CM (complete main)
    Format settings, Endianness : Big
    Codec ID : A_AC3
    Duration : 1h 34mn
    Bit rate mode : Constant
    Bit rate : 192 Kbps
    Channel(s) : 2 channels
    Channel positions : Front: L R
    Sampling rate : 48.0 KHz
    Bit depth : 16 bits
    Compression mode : Lossy
    Stream size : 130 MiB (8%)
    Title : Оригинал: AC-3; 16 bit 48 Khz; 2.0 ch 192 Kbps; CBR
    Language : Russian
    Default : Yes
    Forced : No
    Text
    ID : 3
    Format : UTF-8
    Codec ID : S_TEXT/UTF8
    Codec ID/Info : UTF-8 Plain Text
    Title : Субтитры английские
    Language : Russian
    Default : No
    Forced : No
    Menu
    00:00:00.000 : ru:I
    00:07:45.120 : ru:II
    00:15:18.720 : ru:III
    00:23:36.000 : ru:IV
    00:31:01.440 : ru:V
    00:41:17.760 : ru:VI
    00:46:20.640 : ru:VII
    00:54:32.160 : ru:VIII
    01:03:30.720 : ru:IX
    01:12:12.480 : ru:X
    01:20:05.760 : ru:XI
    01:27:00.960 : ru:XII
    Скачать .torrent

    Скачать торрент-файл бесплатно и на максимальной скорости!

    Как скачивать? · Что такое торрент? · Рейтинг и ограничения

    !ВНИМАНИЕ!
    Сайт не распространяет и не хранит электронные версии произведений, а занимается лишь лишь предоставлением доступа к создаваемому пользователями каталогу ссылок на торрент-файлы, которые содержат только списки хеш-сумм, убедительная просьба с жалобами обращаться напрямую к пользователю. Файлы для обмена на трекере предоставлены пользователями сайта, и администрация не несёт ответственности за их содержание. Просьба не заливать файлы, защищенные авторскими правами, а также файлы нелегального содержания!


    _________________
    [Профиль] [ЛС]
    Показать сообщения:    
    Ответить на тему

    Текущее время: Сегодня, в 10:53

    Часовой пояс: GMT + 2



    Вы не можете начинать темы
    Вы не можете отвечать на сообщения
    Вы не можете редактировать свои сообщения
    Вы не можете удалять свои сообщения
    Вы не можете голосовать в опросах
    Вы не можете прикреплять файлы к сообщениям
    Вы не можете скачивать файлы