BitTorrentTracker PerecTracker.org
BitTorrentTracker PerecTracker.org
    
Регистрация  ·  Вход
 
 · 
Забыли пароль?

  • 12 рождественских собак 2: Чудесное спасение / 12 Dogs of Christmas II: Great Puppy Rescue (Кит Мэрилл / Kieth Merrill) [2012, США, Семейный, детский, TVRip] MVO

    Ответить на тему
     
    Автор Сообщение

    Light

    Создавать темы 31-Окт-2015 11:54

           

    [Цитировать]

    12 рождественских собак-2: Чудесное спасение / 12 Dogs of Christmas II: Great Puppy Rescue
    Страна: США
    Жанр: Семейный, детский
    Год выпуска: 2012
    Продолжительность: 01:37:33
    Перевод: Профессиональный (многоголосый закадровый)
    Cубтитры: нет
    Режиссер: Кит Мэрилл / Kieth Merrill
    В ролях: Шон Патрик Флэнери, Д.Б. Суини, Даниэль Чачран, Алли Симпсон, Сабрина Эндрус, Хезер Бирс, Карлос А. Кабаркас
    Описание: Собаки Довервиля снова в беде и Эмили О'Коннер спустя 6 лет вернулась, чтобы спасти их.
    Местный магнат Финнис Джеймс задумал закрыть приют щенков и, если Эмили не найдёт деньги, то приют закроют.
    С помощью друзей Эмили организует благотворительный вечер, чтобы достать деньги на спасение приюта.
    Ей помогает новая знакомая Зои - бывшая актриса, а теперь предсказательница, которая мистическим образом угадывает будущие события.
    В итоге всё хорошо, по возможности, закончится.
    Доп. информация: от 6 лет
    Сэмпл: http://multi-up.com/1073554
    Качество видео: TVRip
    Формат видео: AVI
    Видео: XviD, 720 х 400 пикс, 25,0 кадров/сек, 1950 Кбит/сек, 0.27 Бит/(Пиксели*Кадры)
    Аудио: MP3, 48,0 КГц, 192 Кбит/сек, 2 канала

    MediaInfo

    Общее
    Полное имя : C:\фильмы\02 возможно для раздачи\12 рождественских собак 2 (2012г)\12 рождественских собак-2.avi
    Формат : AVI
    Формат/Информация : Audio Video Interleave
    Размер файла : 1,47 Гбайт
    Продолжительность : 1 ч. 37 м.
    Общий поток : 2151 Кбит/сек
    Видео
    Идентификатор : 0
    Формат : MPEG-4 Visual
    Профиль формата : Advanced Simple@L4
    Параметр BVOP формата : Нет
    Параметр QPel формата : Нет
    Параметр GMC формата : Без точки перехода
    Параметр матрицы формата : Default (H.263)
    Идентификатор кодека : XVID
    Идентификатор кодека/Подсказка : XviD
    Продолжительность : 1 ч. 37 м.
    Битрейт : 1949 Кбит/сек
    Ширина : 720 пикселей
    Высота : 400 пикселей
    Соотношение сторон : 16:9
    Частота кадров : 25,000 кадров/сек
    Цветовое пространство : YUV
    Субдискретизация насыщенности : 4:2:0
    Битовая глубина : 8 бит
    Тип развёртки : Прогрессивная
    Метод сжатия : С потерями
    Бит/(Пиксели*Кадры) : 0.271
    Размер потока : 1,33 Гбайт (91%)
    Аудио
    Идентификатор : 1
    Формат : MPEG Audio
    Версия формата : Version 1
    Профиль формата : Layer 3
    Идентификатор кодека : 55
    Идентификатор кодека/Подсказка : MP3
    Продолжительность : 1 ч. 37 м.
    Продолжительность оригинала : 1 ч. 37 м.
    Вид битрейта : Постоянный
    Битрейт : 192 Кбит/сек
    Каналы : 2 канала
    Частота : 48,0 КГц
    Метод сжатия : С потерями
    Размер потока : 134 Мбайт (9%)
    Выравнивание : Соединение по промежуткам
    Продолжительность промежутка : 40 мс. (1,00 видеокадр)
    Библиотека кодирования : LAME3.98.2

    Скриншот c названием фильма

    Скриншоты


    Источник рипа

    телепередача, телеканал Gulli
    Скачать .torrent

    Скачать торрент-файл бесплатно и на максимальной скорости!

    Как скачивать? · Что такое торрент? · Рейтинг и ограничения

    !ВНИМАНИЕ!
    Сайт не распространяет и не хранит электронные версии произведений, а занимается лишь лишь предоставлением доступа к создаваемому пользователями каталогу ссылок на торрент-файлы, которые содержат только списки хеш-сумм, убедительная просьба с жалобами обращаться напрямую к пользователю. Файлы для обмена на трекере предоставлены пользователями сайта, и администрация не несёт ответственности за их содержание. Просьба не заливать файлы, защищенные авторскими правами, а также файлы нелегального содержания!


    _________________
    [Профиль] [ЛС]
    Показать сообщения:    
    Ответить на тему

    Текущее время: Сегодня, в 04:12

    Часовой пояс: GMT + 2



    Вы не можете начинать темы
    Вы не можете отвечать на сообщения
    Вы не можете редактировать свои сообщения
    Вы не можете удалять свои сообщения
    Вы не можете голосовать в опросах
    Вы не можете прикреплять файлы к сообщениям
    Вы не можете скачивать файлы