BitTorrentTracker PerecTracker.org
BitTorrentTracker PerecTracker.org
    
Регистрация  ·  Вход
 
 · 
Забыли пароль?

  • Под сильным ангелом / Под крепким ангелом / Песни пьющих / Pod mocnym aniolem (Войчех Смажовский / Wojciech Smarzowski) [2014, Польша, драма, DVDRip] VO (datynet) + Sub Rus + Original Pol

    Ответить на тему
     
    Автор Сообщение

    Light

    Создавать темы 31-Окт-2015 08:31

           

    [Цитировать]

    Под сильным ангелом / Под крепким ангелом / Песни пьющих / Pod mocnym aniolem
    Страна: Польша
    Жанр: драма
    Год выпуска: 2014
    Продолжительность: 01:44:48
    Перевод: Одноголосый закадровый - datynet
    Cубтитры: русские
    Оригинальная аудиодорожка: польский
    Режиссер: Войчех Смажовский / Wojciech Smarzowski
    В ролях: Роберт Венцкевич, Юлия Киёвска, Анджей Грабовский, Иза Куна, Ивона Бельска, Кинга Прейс, Ивона Вшолкувна, Яцек Брачак, Марьян Дзендзель, Аркадиуш Якубик, Лех Дыблик, Адам Воронович, Роберт Валих, Кшиштоф Кершновский, Марчин Дорочиньский
    Описание: Ежи - писатель и хронический алкоголик. Знакомство с молодой девушкой привносит смысл в его жизнь. Ему даже кажется, что он победил свою алкогольную зависимость. Но не тут-то было. Заглянув в бар "Под Сильным Ангелом", Ежи уже не может остановиться: водка, водка и ещё раз водка, без конца и края. Наконец он в бессознательном состоянии попадает в больницу, где проходит курс реабилитации с такими же бедолагами, как он. Один из методов лечения - чтение перед всеми пациентами историй о своих пьяных похождениях, водочных экспериментах, жизненных драмах.
    "Под сильным ангелом" - это рассказ о медленном нравственном падении человека, о трагической борьбе с собой и своим пороком, об отчаянии, надежде, следующих провалах и о любви, которая, как свет в тоннеле, даёт главному герою последний шанс, чтобы вернуться к нормальной жизни и освободиться от страшной болезни.
    Сценарий Войчеха Смажовского по мотивам одноимённой повести Ежи Пильха
    Доп. информация: В фильме присутствует ненормативная лексика и сцены насилия/секса
    Источник: http://perectracker.org/viewtopic.php?t=4755554
    Сэмпл: http://multi-up.com/1073495
    Качество видео: DVDRip
    Формат видео: AVI
    Видео: XviD, 720x304, 2.35:1, 25.000 fps, 1408 kbps
    Аудио: MP3, 44 kHz, 128 kbps, 2 ch, русский
    Аудио 2: AC3, 48 kHz, 448 kbps, 6 ch, Original (польский)
    Формат субтитров: softsub (SRT)

    MediaInfo

    Общее
    Полное имя : F:\Pod Mocnym Aniolem\Pod Mocnym Aniolem.avi
    Формат : AVI
    Формат/Информация : Audio Video Interleave
    Размер файла : 1,46 Гбайт
    Продолжительность : 1 ч. 44 м.
    Общий поток : 1999 Кбит/сек
    Программа кодирования : VirtualDubMod 1.5.10.2 (build 2540/release)
    Библиотека кодирования : VirtualDubMod build 2540/release
    Видео
    Идентификатор : 0
    Формат : MPEG-4 Visual
    Профиль формата : Advanced Simple@L5
    Параметр BVOP формата : 1
    Параметр QPel формата : Нет
    Параметр GMC формата : Без точки перехода
    Параметр матрицы формата : Default (H.263)
    Режим смешивания : Сжатый битовый поток
    Идентификатор кодека : XVID
    Идентификатор кодека/Подсказка : XviD
    Продолжительность : 1 ч. 44 м.
    Битрейт : 1408 Кбит/сек
    Ширина : 720 пикселей
    Высота : 304 пикселя
    Соотношение сторон : 2,35:1
    Частота кадров : 25,000 кадров/сек
    Цветовое пространство : YUV
    Субдискретизация насыщенности : 4:2:0
    Битовая глубина : 8 бит
    Тип развёртки : Прогрессивная
    Метод сжатия : С потерями
    Бит/(Пиксели*Кадры) : 0.257
    Размер потока : 1,03 Гбайт (70%)
    Библиотека кодирования : XviD 1.2.1 (UTC 2008-12-04)
    Аудио #1
    Идентификатор : 1
    Формат : MPEG Audio
    Версия формата : Version 1
    Профиль формата : Layer 3
    Режим : Joint stereo
    Идентификатор кодека : 55
    Идентификатор кодека/Подсказка : MP3
    Продолжительность : 1 ч. 44 м.
    Вид битрейта : Постоянный
    Битрейт : 128 Кбит/сек
    Каналы : 2 канала
    Частота : 44,1 КГц
    Метод сжатия : С потерями
    Размер потока : 96,0 Мбайт (6%)
    Выравнивание : Разделение по промежуткам
    Продолжительность промежутка : 40 мс. (1,00 видеокадр)
    Время предзагрузки промежутка : 500 мс.
    Библиотека кодирования : LAME3.99
    Аудио #2
    Идентификатор : 2
    Формат : AC-3
    Формат/Информация : Audio Coding 3
    Расширение режима : CM (complete main)
    Параметр Endianness формата : Big
    Идентификатор кодека : 2000
    Продолжительность : 1 ч. 44 м.
    Вид битрейта : Постоянный
    Битрейт : 448 Кбит/сек
    Каналы : 6 каналов
    Расположение каналов : Front: L C R, Side: L R, LFE
    Частота : 48,0 КГц
    Битовая глубина : 16 бит
    Метод сжатия : С потерями
    Размер потока : 336 Мбайт (22%)
    Выравнивание : Разделение по промежуткам
    Продолжительность промежутка : 40 мс. (1,00 видеокадр)
    Время предзагрузки промежутка : 500 мс.

    Скриншот c названием фильма

    Скриншоты

    Скачать .torrent

    Скачать торрент-файл бесплатно и на максимальной скорости!

    Как скачивать? · Что такое торрент? · Рейтинг и ограничения

    !ВНИМАНИЕ!
    Сайт не распространяет и не хранит электронные версии произведений, а занимается лишь лишь предоставлением доступа к создаваемому пользователями каталогу ссылок на торрент-файлы, которые содержат только списки хеш-сумм, убедительная просьба с жалобами обращаться напрямую к пользователю. Файлы для обмена на трекере предоставлены пользователями сайта, и администрация не несёт ответственности за их содержание. Просьба не заливать файлы, защищенные авторскими правами, а также файлы нелегального содержания!


    _________________
    [Профиль] [ЛС]
    Показать сообщения:    
    Ответить на тему

    Текущее время: Сегодня, в 14:13

    Часовой пояс: GMT + 2



    Вы не можете начинать темы
    Вы не можете отвечать на сообщения
    Вы не можете редактировать свои сообщения
    Вы не можете удалять свои сообщения
    Вы не можете голосовать в опросах
    Вы не можете прикреплять файлы к сообщениям
    Вы не можете скачивать файлы