BitTorrentTracker PerecTracker.org
BitTorrentTracker PerecTracker.org
    
Регистрация  ·  Вход
 
 · 
Забыли пароль?

  • Паства Святого Духа / Holy Ghost People (Митчелл Алтери / Mitchell Altieri) [2013, США, Триллер, HDRip] DVO (datynet & Galina Vasyukova)

    Ответить на тему
     
    Автор Сообщение

    Light

    Создавать темы 31-Окт-2015 08:31

           

    [Цитировать]

    Паства Святого Духа / Holy Ghost PeopleСтрана: США
    Жанр: Триллер
    Год выпуска: 2013
    Продолжительность: 01:28:18
    Перевод: Любительский (двухголосый закадровый) datynet & Galina Vasyukova
    Перевод: Перевод: Куценко & Galina Vasyukova
    Cубтитры: нет
    Оригинальная аудиодорожка: нет
    Режиссер: Митчелл Алтери / Mitchell Altieri
    В ролях: Эмма Гринвелл, Джо Эгендер, Брендан МакКарти, Кэмерон Ричардсон, Дон Харви, Роджер Аарон Браун, Джеймс Лоу, Джейсон Бенжамин, Джейн Энтвистл
    Описание: Молодая героиня разыскивает пропавшую сестру. Поиски приводят ее в некую отдаленную церковь, где местные жители, в основном изгои, внимают слову Брата Билли, призывающего искать спасение от грехов мирских в Святом Духе. При этом он использует на своих мессах весьма специфические методы воздействия…

    Сэмпл: http://sendfile.su/1169475
    Качество видео: HDRip
    Формат видео: AVI
    Видео: Xvid 720x304 23.976fps 2097kbps
    Аудио: MP3 44100Hz stereo 256kbps

    MediaInfo

    Общее
    Полное имя : G:\Holy Ghost People 2013.avi
    Формат : AVI
    Формат/Информация : Audio Video Interleave
    Размер файла : 1,46 Гбайт
    Продолжительность : 1 ч. 28 м.
    Общий поток : 2363 Кбит/сек
    Библиотека кодирования : VirtualDub build 35576/release
    Видео
    Идентификатор : 0
    Формат : MPEG-4 Visual
    Профиль формата : Advanced Simple@L5
    Параметр BVOP формата : 2
    Параметр QPel формата : Нет
    Параметр GMC формата : Без точки перехода
    Параметр матрицы формата : Default (H.263)
    Режим смешивания : Сжатый битовый поток
    Идентификатор кодека : XVID
    Идентификатор кодека/Подсказка : XviD
    Продолжительность : 1 ч. 28 м.
    Битрейт : 2097 Кбит/сек
    Ширина : 720 пикселей
    Высота : 304 пикселя
    Соотношение сторон : 2,35:1
    Частота кадров : 23,976 кадра/сек
    Цветовое пространство : YUV
    Субдискретизация насыщенности : 4:2:0
    Битовая глубина : 8 бит
    Тип развёртки : Прогрессивная
    Метод сжатия : С потерями
    Бит/(Пиксели*Кадры) : 0.400
    Размер потока : 1,29 Гбайт (89%)
    Библиотека кодирования : XviD 64
    Аудио
    Идентификатор : 1
    Формат : MPEG Audio
    Версия формата : Version 1
    Профиль формата : Layer 3
    Идентификатор кодека : 55
    Идентификатор кодека/Подсказка : MP3
    Продолжительность : 1 ч. 28 м.
    Вид битрейта : Постоянный
    Битрейт : 256 Кбит/сек
    Каналы : 2 канала
    Частота : 44,1 КГц
    Метод сжатия : С потерями
    Размер потока : 162 Мбайт (11%)
    Выравнивание : Разделение по промежуткам
    Продолжительность промежутка : 42 мс. (1,00 видеокадр)
    Время предзагрузки промежутка : 500 мс.

    Скриншот c названием фильма

    Скриншоты


















    Скачать .torrent

    Скачать торрент-файл бесплатно и на максимальной скорости!

    Как скачивать? · Что такое торрент? · Рейтинг и ограничения

    !ВНИМАНИЕ!
    Сайт не распространяет и не хранит электронные версии произведений, а занимается лишь лишь предоставлением доступа к создаваемому пользователями каталогу ссылок на торрент-файлы, которые содержат только списки хеш-сумм, убедительная просьба с жалобами обращаться напрямую к пользователю. Файлы для обмена на трекере предоставлены пользователями сайта, и администрация не несёт ответственности за их содержание. Просьба не заливать файлы, защищенные авторскими правами, а также файлы нелегального содержания!


    _________________
    [Профиль] [ЛС]
    Показать сообщения:    
    Ответить на тему

    Текущее время: Сегодня, в 18:33

    Часовой пояс: GMT + 2



    Вы не можете начинать темы
    Вы не можете отвечать на сообщения
    Вы не можете редактировать свои сообщения
    Вы не можете удалять свои сообщения
    Вы не можете голосовать в опросах
    Вы не можете прикреплять файлы к сообщениям
    Вы не можете скачивать файлы