BitTorrentTracker PerecTracker.org
BitTorrentTracker PerecTracker.org
    
Регистрация  ·  Вход
 
 · 
Забыли пароль?

  • Байки Митяя [01-20 из 20] (2012) 2хDVD9

    Ответить на тему
     
    Автор Сообщение

    BOSS

    Создавать темы 30-Окт-2015 20:08

           

    [Цитировать]

    Страна: Украина
    Год выпуска: 2012
    Производство: «Студия Квартал-95»
    Жанр: комедия
    Продолжительность: 08:50:00
    Режиссёр: Алексей Кирющенко
    В ролях: Николай Добрынин, Алексей Смолка, Михаил Романов, Виктор Андриенко, Виктор Сарайкин, Александр Игнатуша, Евгений Кошевой, Егор Крутоголов, Юрий Крапов, Ольга Радчук...
    Описание: Не секрет, что в стрессовой ситуации человеческий мозг способен на многое, а возможности мозга неугомонного фантазера и рассказчика Дмитрия Буханкина становятся практически безграничными. И так уж заведено, что в поселке Кучугуры уже много лет из уст в уста передают не только рецепт фирменного самогона Митяя, но его знаменитые байки.
    Митяй - нерадивый сосед большого семейства и закадычный друг Ивана Будько - появился в третьей части народной эпопеи "Сваты" и настолько полюбился зрителям, что авторы фильма решили снять о нем отдельную киноисторию. "Митяй, который задумывался как второстепенный для "Сватов" персонаж, в исполнении заслуженного артиста России Николая Добрынина получился настолько ярким и неординарным, что нам захотелось вывести его на первый план. Митяй - архетип такого простого нашего мужика, любящего выпить, что-то "сбрехнуть", "стырить", но все это "на голубом глазу" и от чистой души", - рассказывает автор идеи и продюсер сериала Андрей Яковлев.
    Митяй иногда слабохарактерный, иногда ленивый, но всегда неисправимый оптимист и романтик. Эти черты его характера - единственное богатство, нажитое им за все время жизни в поселке городского типа Кучугуры.
    Каждый раз, попадая в очередную неразрешимую житейскую ситуацию, Митяй, дабы выкрутиться из положения, рассказывает собеседнику правдивую историю из своей жизни, или, если угодно, байку. Но байка – она ведь на то и есть байка, что даже правда в ней смотрится несколько утрированной и приукрашенной. Вот и получается, что Митяй служил в секретных войсках, был личным водителем Брежнева, слетал на Луну еще до Армстронга, первым придумал радио, спас жизнь Горбачеву, был первым солистом группы "Ласковый май" и т.д. и т.п. Верить или нет – дело ваше. Но Митяй клянется, что так все и было.--Тип релиза: DVD9 R5
    Контейнер: DVD Video
    Видео: PAL 16x9 (720х576) VBR ~ 3160 kbps
    Аудио: 48 kHz, AC3, 2 ch, 192 kbps (первый диск), 256 kbps (второй диск)
    Меню: анимированное
    Доп. материалы: Скоро на DVD

    DVDInfo

    Title: D1
    Size: 7.03 Gb ( 7 367 476,00 KBytes ) - DVD-9
    Enabled regions: 1, 2, 3, 4, 5, 6, 7, 8
    VTS_01 :
    Play Length: 00:00:01+00:27:23+00:00:01+00:00:01+00:27:27+00:00:01+00:00:01+00:26:24+00:00:01+00:00:01+00:28:41+00:00:01+00:00:01+00:26:40+00:00:01+00:00:01+00:26:27+00:00:01+00:00:01+00:26:44+00:00:01+00:00:01+00:26:26+00:00:01+00:00:01+00:26:10+00:00:01+00:00:01+00:26:21+00:00:01
    Video: PAL 16:9 (720x576) VBR, Auto Letterboxed
    Audio:
    Russian, AC3, 2/0 (L,R) ch, 192 kbps, Delay 0 mSec
    VTS_02 :
    Play Length: 00:00:01+00:00:11+00:00:01
    Video: PAL 16:9 (720x576) VBR, Auto Letterboxed
    Audio:
    Russian (Dolby AC3, 2 ch)
    VTS_03 :
    Play Length: 00:00:01+00:00:17+00:00:01
    Video: PAL 16:9 (720x576) VBR, Auto Letterboxed
    Audio:
    Russian (Dolby AC3, 2 ch)
    VTS_04 :
    Play Length: 00:00:01+00:16:58+00:00:01
    Video: PAL 16:9 (720x576) VBR, Auto Letterboxed
    Audio:
    Russian (Dolby AC3, 2 ch)

    MI

    Общее
    Полное имя : Bayki.Mityaya.2012.O.2xDVD9D1VIDEO_TSVTS_01_1.VOB
    Формат : MPEG-PS
    Размер файла : 1024 Мбайт
    Продолжительность : 16 м.
    Общий поток : 8430 Кбит/сек
    Видео
    Идентификатор : 224 (0xE0)
    Формат : MPEG Video
    Версия формата : Version 2
    Профиль формата : Main@Main
    Параметр BVOP формата : Да
    Параметр матрицы формата : Выборочная
    Продолжительность : 16 м.
    Битрейт : 8070 Кбит/сек
    Максимальный битрейт : 6000 Кбит/сек
    Ширина : 720 пикселей
    Высота : 576 пикселей
    Соотношение сторон : 16:9
    Частота кадров : 25,000 кадров/сек
    Стандарт вещания : PAL
    Цветовое пространство : YUV
    Субдискретизация насыщенности : 4:2:0
    Битовая глубина : 8 бит
    Тип развёртки : Чересстрочная
    Порядок развёртки : Нижнее поле первое
    Метод сжатия : С потерями
    Бит/(Пиксели*Кадры) : 0.778
    Размер потока : 980 Мбайт (96%)
    Аудио
    Идентификатор : 189 (0xBD)-128 (0x80)
    Формат : AC-3
    Формат/Информация : Audio Coding 3
    Расширение режима : CM (complete main)
    Режим смешивания : DVD-Video
    Продолжительность : 16 м.
    Вид битрейта : Постоянный
    Битрейт : 192 Кбит/сек
    Каналы : 2 канала
    Расположение каналов : Front: L R
    Частота : 48,0 КГц
    Битовая глубина : 16 бит
    Метод сжатия : С потерями
    Размер потока : 23,3 Мбайт (2%)
    Меню

    Скриншоты меню

    Скриншоты

    Скачать .torrent

    Скачать торрент-файл бесплатно и на максимальной скорости!

    Как скачивать? · Что такое торрент? · Рейтинг и ограничения

    !ВНИМАНИЕ!
    Сайт не распространяет и не хранит электронные версии произведений, а занимается лишь лишь предоставлением доступа к создаваемому пользователями каталогу ссылок на торрент-файлы, которые содержат только списки хеш-сумм, убедительная просьба с жалобами обращаться напрямую к пользователю. Файлы для обмена на трекере предоставлены пользователями сайта, и администрация не несёт ответственности за их содержание. Просьба не заливать файлы, защищенные авторскими правами, а также файлы нелегального содержания!

    [Профиль] [ЛС]
    Показать сообщения:    
    Ответить на тему

    Текущее время: Сегодня, в 20:25

    Часовой пояс: GMT + 2



    Вы не можете начинать темы
    Вы не можете отвечать на сообщения
    Вы не можете редактировать свои сообщения
    Вы не можете удалять свои сообщения
    Вы не можете голосовать в опросах
    Вы не можете прикреплять файлы к сообщениям
    Вы не можете скачивать файлы