BitTorrentTracker PerecTracker.org
BitTorrentTracker PerecTracker.org
    
Регистрация  ·  Вход
 
 · 
Забыли пароль?

  • Не плачь, девчонка (Евгений Шерстобитов) [1976, музыкальная комедия, DVB]

    Ответить на тему
     
    Автор Сообщение

    Light

    Создавать темы 30-Окт-2015 18:58

           

    [Цитировать]

    Не плачь, девчонка
    Жанр: Музыкальная комедия
    Год выпуска: 1976
    Продолжительность: 01:10:18
    Режиссёр: Евгений Шерстобитов
    В ролях: Альберт Шестопалов, Виктор Панченко, Виктор Степаненко (II), Виктор Андриенко, Ольга Матешко, Маргарита Кошелева, Николай Гудзь, Николай Гаврилов
    Описание: Но к его разочарованию, медицинская комиссия признает Андрея негодным к строевой. Однако, он несмотря ни на что намерен испытать себя в сложных условиях и едет в южный совхоз, где просится на самые тяжелые работы...
    Доп. информация: Запись потока *.ts со спутника EUTELSAT 36A/B, 36° в.д., ремукс в *.MKV
    Качество видео: DVB
    Формат видео: MKV
    Видео: MPEG Video, 720x576 (4:3), 25,000 кадров/сек, 3 144 Кбит/сек
    Аудио: MPEG Audio, 48,0 КГц, 192 Кбит/сек, 2 канала

    MediaInfo

    General
    Unique ID : 104020200093523969937413802794965918183 (0x4E418FD35011AA01990672DCA4A5E1E7)
    Complete name : D:\MPG\НЕ ПЛАЧЬ ДЕВЧОНКА (Ностальгия).mkv
    Format : Matroska
    Format version : Version 2
    File size : 1.67 GiB
    Duration : 1h 10mn
    Overall bit rate mode : Variable
    Overall bit rate : 3 403 Kbps
    Writing application : Lavf52.64.2
    Writing library : Lavf52.64.2
    Video
    ID : 1
    Format : MPEG Video
    Format version : Version 2
    Format profile : Main@Main
    Format settings, BVOP : No
    Format settings, Matrix : Custom
    Codec ID : V_MPEG2
    Codec ID/Info : MPEG 1 or 2 Video
    Duration : 1h 10mn
    Bit rate mode : Variable
    Bit rate : 3 144 Kbps
    Maximum bit rate : 15.0 Mbps
    Width : 720 pixels
    Height : 576 pixels
    Display aspect ratio : 4:3
    Original display aspect ratio : 4:3
    Frame rate mode : Constant
    Frame rate : 25.000 fps
    Standard : PAL
    Color space : YUV
    Chroma subsampling : 4:2:0
    Bit depth : 8 bits
    Scan type : Interlaced
    Scan order : Top Field First
    Compression mode : Lossy
    Bits/(Pixel*Frame) : 0.303
    Time code of first frame : 00:00:00:00
    Time code source : Group of pictures header
    Stream size : 1.54 GiB (92%)
    Default : Yes
    Forced : No
    Audio
    ID : 2
    Format : MPEG Audio
    Format version : Version 1
    Format profile : Layer 2
    Codec ID : A_MPEG/L2
    Codec ID/Hint : MP2
    Duration : 1h 10mn
    Bit rate mode : Constant
    Bit rate : 192 Kbps
    Channel count : 2 channels
    Sampling rate : 48.0 KHz
    Compression mode : Lossy
    Delay relative to video : -1mn 5s
    Stream size : 96.5 MiB (6%)
    Language : Russian
    Default : Yes
    Forced : No

    Скриншоты

    Скачать .torrent

    Скачать торрент-файл бесплатно и на максимальной скорости!

    Как скачивать? · Что такое торрент? · Рейтинг и ограничения

    !ВНИМАНИЕ!
    Сайт не распространяет и не хранит электронные версии произведений, а занимается лишь лишь предоставлением доступа к создаваемому пользователями каталогу ссылок на торрент-файлы, которые содержат только списки хеш-сумм, убедительная просьба с жалобами обращаться напрямую к пользователю. Файлы для обмена на трекере предоставлены пользователями сайта, и администрация не несёт ответственности за их содержание. Просьба не заливать файлы, защищенные авторскими правами, а также файлы нелегального содержания!


    _________________
    [Профиль] [ЛС]
    Показать сообщения:    
    Ответить на тему

    Текущее время: Сегодня, в 11:52

    Часовой пояс: GMT + 2



    Вы не можете начинать темы
    Вы не можете отвечать на сообщения
    Вы не можете редактировать свои сообщения
    Вы не можете удалять свои сообщения
    Вы не можете голосовать в опросах
    Вы не можете прикреплять файлы к сообщениям
    Вы не можете скачивать файлы