Register  ·  Log in
Forgot password?

  • Не плачь, девчонка (Евгений Шерстобитов) [1976, музыкальная комедия, DVB]

    Reply to topic
    Author Message


    Post 30-Oct-2015 19:58



    Не плачь, девчонка
    Жанр: Музыкальная комедия
    Год выпуска: 1976
    Продолжительность: 01:10:18
    Режиссёр: Евгений Шерстобитов
    В ролях: Альберт Шестопалов, Виктор Панченко, Виктор Степаненко (II), Виктор Андриенко, Ольга Матешко, Маргарита Кошелева, Николай Гудзь, Николай Гаврилов
    Описание: Но к его разочарованию, медицинская комиссия признает Андрея негодным к строевой. Однако, он несмотря ни на что намерен испытать себя в сложных условиях и едет в южный совхоз, где просится на самые тяжелые работы...
    Доп. информация: Запись потока *.ts со спутника EUTELSAT 36A/B, 36° в.д., ремукс в *.MKV
    Качество видео: DVB
    Формат видео: MKV
    Видео: MPEG Video, 720x576 (4:3), 25,000 кадров/сек, 3 144 Кбит/сек
    Аудио: MPEG Audio, 48,0 КГц, 192 Кбит/сек, 2 канала


    Unique ID : 104020200093523969937413802794965918183 (0x4E418FD35011AA01990672DCA4A5E1E7)
    Complete name : D:\MPG\НЕ ПЛАЧЬ ДЕВЧОНКА (Ностальгия).mkv
    Format : Matroska
    Format version : Version 2
    File size : 1.67 GiB
    Duration : 1h 10mn
    Overall bit rate mode : Variable
    Overall bit rate : 3 403 Kbps
    Writing application : Lavf52.64.2
    Writing library : Lavf52.64.2
    ID : 1
    Format : MPEG Video
    Format version : Version 2
    Format profile : Main@Main
    Format settings, BVOP : No
    Format settings, Matrix : Custom
    Codec ID : V_MPEG2
    Codec ID/Info : MPEG 1 or 2 Video
    Duration : 1h 10mn
    Bit rate mode : Variable
    Bit rate : 3 144 Kbps
    Maximum bit rate : 15.0 Mbps
    Width : 720 pixels
    Height : 576 pixels
    Display aspect ratio : 4:3
    Original display aspect ratio : 4:3
    Frame rate mode : Constant
    Frame rate : 25.000 fps
    Standard : PAL
    Color space : YUV
    Chroma subsampling : 4:2:0
    Bit depth : 8 bits
    Scan type : Interlaced
    Scan order : Top Field First
    Compression mode : Lossy
    Bits/(Pixel*Frame) : 0.303
    Time code of first frame : 00:00:00:00
    Time code source : Group of pictures header
    Stream size : 1.54 GiB (92%)
    Default : Yes
    Forced : No
    ID : 2
    Format : MPEG Audio
    Format version : Version 1
    Format profile : Layer 2
    Codec ID : A_MPEG/L2
    Codec ID/Hint : MP2
    Duration : 1h 10mn
    Bit rate mode : Constant
    Bit rate : 192 Kbps
    Channel count : 2 channels
    Sampling rate : 48.0 KHz
    Compression mode : Lossy
    Delay relative to video : -1mn 5s
    Stream size : 96.5 MiB (6%)
    Language : Russian
    Default : Yes
    Forced : No


    Download .torrent

    Download free and at maximum speed!

    How to Download? · What is a torrent? · Ratings and Limitations

    The site does not extend and does not store electronic(digital) versions of products, and only gives access to a reference catalogue created by users on torrent-files which contain only lists of the hash-sums, the earnest entreaty, with complaints(abuse) to access directly to the user. Files for an exchange on tracker are given by users of a site, and the administration does not bear the responsibility for their maintenance. The request to not fill in the files protected by copyrights, and also files of the illegal maintenance!

    [Profile] [PM]
    Display posts from previous:    
    Reply to topic

    The time now is: Today 19:12

    All times are GMT + 3 Hours

    You cannot post new topics in this forum
    You cannot reply to topics in this forum
    You cannot edit your posts in this forum
    You cannot delete your posts in this forum
    You cannot vote in polls in this forum
    You cannot attach files in this forum
    You cannot download files in this forum