BitTorrentTracker PerecTracker.org
BitTorrentTracker PerecTracker.org
    
Регистрация  ·  Вход
 
 · 
Забыли пароль?

  • Развод в большом городе / What Maisie Knew (Скотт МакГихи / Scott McGehee, Дэвид Сигел / David Siegel) [2012, США, Психологическая драма, HDRip] MVO (1 канал) + MVO (online movies) + Original Eng

    Ответить на тему
     
    Автор Сообщение

    Light

    Создавать темы 30-Окт-2015 08:55

           

    [Цитировать]

    Развод в большом городе / What Maisie Knew
    Страна: США
    Жанр: Психологическая драма
    Год выпуска: 2012
    Продолжительность: 01:38:55
    Перевод: Профессиональный (многоголосый закадровый) 1 канал
    Перевод 2: Профессиональный (многоголосый закадровый) online movies
    Cубтитры: нет
    Оригинальная аудиодорожка: английский
    Режиссер: Скотт МакГихи / Scott McGehee, Дэвид Сигел / David Siegel
    В ролях: Джулианна Мур, Александр Скарсгард, Оната Эйприл, Джоэнна Вандерхам, Стив Куган, Сэди Рэй, Джесси Стоун Спадаччини, Диана Гарсиа, Амелия Кэмпбелл, Мэдди Кормэн
    Описание: Вольная экранизация одноименного романа Генри Джеймса, изданного в 1897 году. Действие перенесено в современный Нью-Йорк.
    Героиня истории — шестилетняя девочка Мейзи, ставшая свидетельницей тяжелого развода своих родителей — рок-звезды и арт-дилера. У каждого свои заботы и дела, что они совсем забывают про то, что у них есть дочь. Ее нужно забирать из садика, сидеть с ней, когда она заболеет, укладывать ее спать, родителям не до нее. И на кого же оставить малютку Мэйзи? Конечно на бывшую няню — нынешнюю жену папы, Марго, и на нового мужа мамы — бармена Линкольна...
    Сэмпл: http://multi-up.com/1073433
    Качество видео: HDRip
    Формат видео: AVI
    Видео: MPEG4, XviD, 720x304 (2.35:1), 23.976 fps, 1 324 Kbps (0.252 bit/pixel)
    Аудио: AC-3, 48.0 KHz, 2 ch, 192 Kbps, CBR - 1 канал
    Аудио 2: AC-3, 48.0 KHz, 2 ch, 192 Kbps, CBR - online movies
    Аудио 3: AC-3, 48.0 KHz, 6 ch, 384 Kbps, CBR - английский

    MediaInfo

    бщее
    Полное имя : K:\МОИ РАЗДАЧИ\Развод в большом городе.avi
    Формат : AVI
    Формат/Информация : Audio Video Interleave
    Размер файла : 1,46 Гбайт
    Продолжительность : 1 ч. 38 м.
    Общий поток : 2111 Кбит/сек
    Название фильма : Развод в большом городе / What Maisie Knew (2012)
    Программа кодирования : VirtualDubMod 1.5.10.2 (build 2540/release)
    Библиотека кодирования : VirtualDubMod build 2540/release
    Авторское право : miha2154
    Видео
    Идентификатор : 0
    Формат : MPEG-4 Visual
    Профиль формата : Advanced Simple@L5
    Параметр BVOP формата : 1
    Параметр QPel формата : Нет
    Параметр GMC формата : Без точки перехода
    Параметр матрицы формата : Выборочная
    Идентификатор кодека : XVID
    Идентификатор кодека/Подсказка : XviD
    Продолжительность : 1 ч. 38 м.
    Битрейт : 1324 Кбит/сек
    Ширина : 720 пикселей
    Высота : 304 пикселя
    Соотношение сторон : 2,35:1
    Частота кадров : 23,976 кадра/сек
    Цветовое пространство : YUV
    Субдискретизация насыщенности : 4:2:0
    Битовая глубина : 8 бит
    Тип развёртки : Прогрессивная
    Метод сжатия : С потерями
    Бит/(Пиксели*Кадры) : 0.252
    Размер потока : 937 Мбайт (63%)
    Библиотека кодирования : XviD 65
    Аудио #1
    Идентификатор : 1
    Формат : AC-3
    Формат/Информация : Audio Coding 3
    Расширение режима : CM (complete main)
    Параметр Endianness формата : Big
    Идентификатор кодека : 2000
    Продолжительность : 1 ч. 38 м.
    Вид битрейта : Постоянный
    Битрейт : 192 Кбит/сек
    Каналы : 2 канала
    Расположение каналов : Front: L R
    Частота : 48,0 КГц
    Метод сжатия : С потерями
    Размер потока : 136 Мбайт (9%)
    Выравнивание : Разделение по промежуткам
    Продолжительность промежутка : 42 мс. (1,00 видеокадр)
    Время предзагрузки промежутка : 500 мс.
    Заголовок : Профессиональный (многоголосый закадровый) 1 канал
    Аудио #2
    Идентификатор : 2
    Формат : AC-3
    Формат/Информация : Audio Coding 3
    Расширение режима : CM (complete main)
    Параметр Endianness формата : Big
    Идентификатор кодека : 2000
    Продолжительность : 1 ч. 38 м.
    Вид битрейта : Постоянный
    Битрейт : 192 Кбит/сек
    Каналы : 2 канала
    Расположение каналов : Front: L R
    Частота : 48,0 КГц
    Метод сжатия : С потерями
    Размер потока : 136 Мбайт (9%)
    Выравнивание : Разделение по промежуткам
    Продолжительность промежутка : 42 мс. (1,00 видеокадр)
    Время предзагрузки промежутка : 500 мс.
    Заголовок : Профессиональный (многоголосый закадровый) online movies
    Аудио #3
    Идентификатор : 3
    Формат : AC-3
    Формат/Информация : Audio Coding 3
    Расширение режима : CM (complete main)
    Параметр Endianness формата : Big
    Идентификатор кодека : 2000
    Продолжительность : 1 ч. 38 м.
    Вид битрейта : Постоянный
    Битрейт : 384 Кбит/сек
    Каналы : 6 каналов
    Расположение каналов : Front: L C R, Side: L R, LFE
    Частота : 48,0 КГц
    Метод сжатия : С потерями
    Размер потока : 272 Мбайт (18%)
    Выравнивание : Разделение по промежуткам
    Продолжительность промежутка : 42 мс. (1,00 видеокадр)
    Время предзагрузки промежутка : 500 мс.
    Заголовок : Английский

    Скриншоты


    Сравнение

    http://perectracker.org/viewtopic.php?t=4997172 - оригинальная дорога ужата до стерео 128kbps
    http://screenshotcomparison.com/comparison/148719
    Скачать .torrent

    Скачать торрент-файл бесплатно и на максимальной скорости!

    Как скачивать? · Что такое торрент? · Рейтинг и ограничения

    !ВНИМАНИЕ!
    Сайт не распространяет и не хранит электронные версии произведений, а занимается лишь лишь предоставлением доступа к создаваемому пользователями каталогу ссылок на торрент-файлы, которые содержат только списки хеш-сумм, убедительная просьба с жалобами обращаться напрямую к пользователю. Файлы для обмена на трекере предоставлены пользователями сайта, и администрация не несёт ответственности за их содержание. Просьба не заливать файлы, защищенные авторскими правами, а также файлы нелегального содержания!


    _________________
    [Профиль] [ЛС]
    Показать сообщения:    
    Ответить на тему

    Текущее время: Сегодня, в 01:29

    Часовой пояс: GMT + 2



    Вы не можете начинать темы
    Вы не можете отвечать на сообщения
    Вы не можете редактировать свои сообщения
    Вы не можете удалять свои сообщения
    Вы не можете голосовать в опросах
    Вы не можете прикреплять файлы к сообщениям
    Вы не можете скачивать файлы