BitTorrentTracker PerecTracker.org
BitTorrentTracker PerecTracker.org
    
Регистрация  ·  Вход
 
 · 
Забыли пароль?

  • [ATV3] Охотник на лис / Foxcatcher (Беннетт Миллер / Bennett Miller ) [2014, США, Драма, спорт, история, BDRip, HD (1080p)] DUB + Original + sub (eng)

    Ответить на тему
     
    Автор Сообщение

    Flirldrerve

    Создавать темы 30-Окт-2015 04:43

           

    [Цитировать]

    Охотник на лис / Foxcatcher
    «Эта история шокировала мир»
    6.748 / 10 7.20 / 10
    -Год выпуска: 2014
    Страна: США
    Жанр: Драма, спорт, история
    Продолжительность: 02:14:26
    Перевод: Дублированный (iTunes Russian)
    Оригинальная аудиодорожка: Есть
    Cубтитры: Английские
    Режиссёр: Беннетт Миллер
    Сценарий: Э. Макс Фрай, Дэн Футтерман
    Продюсер: Энтони Брегман, Меган Эллисон, Джон Килик
    Оператор: Грег Фрэйзер
    Композитор: Роб Симонсен
    Художник: Джесс Гончор, Брэд Рикер, Кася Валицка-Мэймон
    Монтаж: Джей Кэссиди, Стюарт Леви, Конор О’Нилл
    В ролях: Стив Карелл, Ченнинг Татум, Марк Руффало, Сиенна Миллер, Ванесса Редгрейв, Энтони Майкл Холл, Гай Бойд, Бретт Райс, Джексон Фрейзер, Самара Ли
    Сборы в США: $12 000 000
    Сборы в России: $332 825
    Мировая премьера: 19 мая 2014
    Премьера (РФ): 29 января 2015, «Парадиз»
    Описание: Мультимиллионер Джон Дюпон приглашает в свое поместье обладателя олимпийской золотой медали по борьбе Марка Шульца для подготовки команды к Олимпийским играм в Сеуле 1988 года. В надежде посвятить всего себя тренировкам, достойно выступить и выйти из тени своего брата, легендарного борца Дейва Шульца, Марк принимает предложение. Но параноик Дюпон затевает игру в кошки-мышки с Марком и Дейвом.-Качество исходника: Кинозал, Охотник на лис / Foxcatcher / 2014 / ДБ / Blu-Ray Remux (1080p)
    Качество: BDRip
    Тип: HD (1080p)
    Контейнер: M4V
    Видео: H.264, 1920x1040, 1.85:1, 8 000 Kbps, 23.976 fps
    Аудио 1: Русский/Дублированный (iTunes Russian), AAC / 2.0 / 150 Kbps / 48.0 KHz
    Аудио 2: Английский/Оригинальная дорожка , AAC / 2.0 / 157 Kbps / 48.0 KHz
    Аудио 3: Русский/Дублированный (iTunes Russian), AC-3 / 5.1 / 384 Kbps / 48.0 KHz
    Аудио 4: Английский/Оригинальная дорожка , AC-3 / 5.1 / 640 Kbps / 48.0 KHz
    Субтитры: Английские полные
    -

    iTunes Meta Tags

    Sort Name: Foxcatcher
    XID: Apple:vendor_id:2014-638053
    contentID: 947723670
    Screenwriters: Э. Макс Фрай, Дэн Футтерман
    Producers: Энтони Брегман, Меган Эллисон, Джон Килик
    Director: Беннетт Миллер
    Cast: Стив Карелл, Ченнинг Татум, Марк Руффало, Сиенна Миллер, Ванесса Редгрейв, Энтони Майкл Холл, Гай Бойд, Бретт Райс, Джексон Фрейзер, Самара Ли
    Studio: Annapurna Pictures; Fair Hill, LLC; Likely Story; Media Rights Capital
    Rating Annotation: Rated R for some drug use and a scene of violence.
    Rating: 11
    Long Description: Мультимиллионер Джон Дюпон приглашает в свое поместье обладателя олимпийской золотой медали по борьбе Марка Шульца для подготовки команды к Олимпийским играм в Сеуле 1988 года. В надежде посвятить всего себя тренировкам, достойно выступить и выйти из тени своего брата, легендарного борца Дейва Шульца, Марк принимает предложение. Но параноик Дюпон затевает игру в кошки-мышки с Марком и Дейвом.
    Description: Мультимиллионер Джон Дюпон приглашает в свое поместье обладателя олимпийской золотой медали по борьбе Марка Шульца для подготовки команды к Олимпийским играм в Сеуле 1988 года.
    Release Date: 2014-05-19T08:00:00Z
    Genre: Drama
    Artist: Bennett Miller
    Name: Foxcatcher

    MediaInfo

    General
    Complete name                            : /Users/imac/HandBrake/Foxcatcher (1080p HD).m4v
    Format                                   : MPEG-4
    Codec ID                                 : M4V
    File size                                : 8.77 GiB
    Duration                                 : 2h 14mn
    Overall bit rate mode                    : Variable
    Overall bit rate                         : 9 339 Kbps
    Movie name                               : Foxcatcher
    Performer                                : Bennett Miller
    Genre                                    : Drama
    Recorded date                            : UTC 2014-05-19 08:00:00
    Encoded date                             : UTC 2015-02-22 22:25:46
    Tagged date                              : UTC 2015-02-22 22:28:31
    Cover                                    : Yes
    sonm                                     : Foxcatcher
    desc                                     : Мультимиллионер Джон Дюпон приглашает в свое поместье обладателя олимпийской золотой медали по борьбе Марка Шульца для подготовки команды к Олимпийским играм в Сеуле 1988 года.
    ldes                                     : Мультимиллионер Джон Дюпон приглашает в свое поместье обладателя олимпийской золотой медали по борьбе Марка Шульца для подготовки команды к Олимпийским играм в Сеуле 1988 года. В надежде посвятить всего себя тренировкам, достойно выступить и выйти из тени своего брата, легендарного борца Дейва Шульца, Марк принимает предложение. Но параноик Дюпон затевает игру в кошки-мышки с Марком и Дейвом.
    hdvd                                     : 2
    stik                                     : 9
    rtng                                     : 0
    cnID                                     : 947723670
    xid                                      : Apple:vendor_id:2014-638053
    iTunEXTC                                 : mpaa|R|400|Rated R for some drug use and a scene of violence.
    iTunMOVI                                 : <?xml version=\"1.0\" encoding=\"UTF-8\"?> / <!DOCTYPE plist PUBLIC \"-//Apple//DTD PLIST 1.0//EN\" \"http://anonym.to/?http://www.apple.com/DTDs/PropertyList-1.0.dtd\"> / <plist version=\"1.0\"> / <dict> /  <key>cast</key> /  <array> /   <dict> /    <key>name</key> /    <string>Стив Карелл</string> /   </dict> /   <dict> /    <key>name</key> /    <string>Ченнинг Татум</string> /   </dict> /   <dict> /    <key>name</key> /    <string>Марк Руффало</string> /   </dict> /   <dict> /    <key>name</key> /    <string>Сиенна Миллер</string> /   </dict> /   <dict> /    <key>name</key> /    <string>Ванесса Редгрейв</string> /   </dict> /   <dict> /    <key>name</key> /    <string>Энтони Майкл Холл</string> /   </dict> /   <dict> /    <key>name</key> /    <string>Гай Бойд</string> /   </dict> /   <dict> /    <key>name</key> /    <string>Бретт Райс</string> /   </dict> /   <dict> /    <key>name</key> /    <string>Джексон Фрейзер</string> /   </dict> /   <dict> /    <key>name</key> /    <string>Самара Ли</string> /   </dict> /  </array> /  <key>directors</key> /  <array> /   <dict> /    <key>name</key> /    <string>Беннетт Миллер</string> /   </dict> /  </array> /  <key>producers</key> /  <array> /   <dict> /    <key>name</key> /    <string>Энтони Брегман</string> /   </dict> /   <dict> /    <key>name</key> /    <string>Меган Эллисон</string> /   </dict> /   <dict> /    <key>name</key> /    <string>Джон Килик</string> /   </dict> /  </array> /  <key>screenwriters</key> /  <array> /   <dict> /    <key>name</key> /    <string>Э. Макс Фрай</string> /   </dict> /   <dict> /    <key>name</key> /    <string>Дэн Футтерман</string> /   </dict> /  </array> /  <key>studio</key> /  <string>Annapurna Pictures; Fair Hill, LLC; Likely Story; Media Rights Capital</string> / </dict> / </plist>
    Video #1
    ID                                       : 1
    Format                                   : AVC
    Format/Info                              : Advanced Video Codec
    Format profile                           : High@L4.0
    Format settings, CABAC                   : Yes
    Format settings, ReFrames                : 4 frames
    Codec ID                                 : avc1
    Codec ID/Info                            : Advanced Video Coding
    Duration                                 : 2h 14mn
    Bit rate mode                            : Variable
    Bit rate                                 : 8 000 Kbps
    Width                                    : 1 920 pixels
    Height                                   : 1 040 pixels
    Display aspect ratio                     : 1.85:1
    Frame rate mode                          : Variable
    Frame rate                               : 23.976 fps
    Minimum frame rate                       : 23.810 fps
    Maximum frame rate                       : 24.272 fps
    Color space                              : YUV
    Chroma subsampling                       : 4:2:0
    Bit depth                                : 8 bits
    Scan type                                : Progressive
    Bits/(Pixel*Frame)                       : 0.167
    Stream size                              : 7.51 GiB (86%)
    Writing library                          : x264 core 142 r2479 dd79a61
    Encoding settings                        : cabac=1 / ref=4 / deblock=1:0:0 / analyse=0x3:0x133 / me=umh / subme=10 / psy=1 / psy_rd=1.00:0.00 / mixed_ref=1 / me_range=32 / chroma_me=1 / trellis=2 / 8x8dct=1 / cqm=0 / deadzone=21,11 / fast_pskip=1 / chroma_qp_offset=-2 / threads=36 / lookahead_threads=4 / sliced_threads=0 / nr=0 / decimate=1 / interlaced=0 / bluray_compat=0 / constrained_intra=0 / bframes=4 / b_pyramid=2 / b_adapt=2 / b_bias=0 / direct=3 / weightb=1 / open_gop=0 / weightp=2 / keyint=240 / keyint_min=24 / scenecut=40 / intra_refresh=0 / rc_lookahead=40 / rc=2pass / mbtree=0 / bitrate=8000 / ratetol=1.0 / qcomp=0.60 / qpmin=0 / qpmax=69 / qpstep=4 / cplxblur=20.0 / qblur=0.5 / vbv_maxrate=25000 / vbv_bufsize=25000 / nal_hrd=none / filler=0 / ip_ratio=1.40 / pb_ratio=1.30 / aq=1:1.00
    Language                                 : English
    Encoded date                             : UTC 2015-02-22 22:25:46
    Tagged date                              : UTC 2015-02-22 22:26:11
    Color primaries                          : BT.709-5, BT.1361, IEC 61966-2-4, SMPTE RP177
    Transfer characteristics                 : BT.709-5, BT.1361
    Matrix coefficients                      : BT.709-5, BT.1361, IEC 61966-2-4 709, SMPTE RP177
    Video #2
    ID                                       : 8
    Format                                   : JPEG
    Codec ID                                 : jpeg
    Duration                                 : 2h 14mn
    Bit rate mode                            : Variable
    Bit rate                                 : 761 bps
    Width                                    : 640 pixels
    Height                                   : 346 pixels
    Display aspect ratio                     : 1.85:1
    Frame rate mode                          : Variable
    Frame rate                               : 0.002 fps
    Minimum frame rate                       : 0.001 fps
    Maximum frame rate                       : 0.004 fps
    Color space                              : YUV
    Chroma subsampling                       : 4:2:0
    Bit depth                                : 8 bits
    Compression mode                         : Lossy
    Bits/(Pixel*Frame)                       : 1.718
    Stream size                              : 744 KiB (0%)
    Language                                 : English
    Encoded date                             : UTC 2015-02-22 22:26:20
    Tagged date                              : UTC 2015-02-22 22:26:21
    Audio #1
    ID                                       : 2
    Format                                   : AAC
    Format/Info                              : Advanced Audio Codec
    Format profile                           : LC
    Codec ID                                 : 40
    Duration                                 : 2h 14mn
    Bit rate mode                            : Variable
    Bit rate                                 : 150 Kbps
    Maximum bit rate                         : 248 Kbps
    Channel(s)                               : 2 channels
    Channel positions                        : Front: L R
    Sampling rate                            : 48.0 KHz
    Compression mode                         : Lossy
    Stream size                              : 144 MiB (2%)
    Language                                 : Russian
    Encoded date                             : UTC 2015-02-22 22:25:46
    Tagged date                              : UTC 2015-02-22 22:26:12
    Audio #2
    ID                                       : 3
    Format                                   : AAC
    Format/Info                              : Advanced Audio Codec
    Format profile                           : LC
    Codec ID                                 : 40
    Duration                                 : 2h 14mn
    Bit rate mode                            : Variable
    Bit rate                                 : 157 Kbps
    Maximum bit rate                         : 239 Kbps
    Channel(s)                               : 2 channels
    Channel positions                        : Front: L R
    Sampling rate                            : 48.0 KHz
    Compression mode                         : Lossy
    Stream size                              : 151 MiB (2%)
    Language                                 : English
    Encoded date                             : UTC 2015-02-22 22:25:46
    Tagged date                              : UTC 2015-02-22 22:26:12
    Audio #3
    ID                                       : 4
    Format                                   : AC-3
    Format/Info                              : Audio Coding 3
    Mode extension                           : CM (complete main)
    Format settings, Endianness              : Big
    Codec ID                                 : ac-3
    Duration                                 : 2h 14mn
    Bit rate mode                            : Constant
    Bit rate                                 : 384 Kbps
    Channel(s)                               : 6 channels
    Channel positions                        : Front: L C R, Side: L R, LFE
    Sampling rate                            : 48.0 KHz
    Bit depth                                : 16 bits
    Compression mode                         : Lossy
    Stream size                              : 369 MiB (4%)
    Language                                 : Russian
    Encoded date                             : UTC 2015-02-22 22:25:46
    Tagged date                              : UTC 2015-02-22 22:25:53
    Audio #4
    ID                                       : 5
    Format                                   : AC-3
    Format/Info                              : Audio Coding 3
    Mode extension                           : CM (complete main)
    Format settings, Endianness              : Big
    Codec ID                                 : ac-3
    Duration                                 : 2h 14mn
    Bit rate mode                            : Constant
    Bit rate                                 : 640 Kbps
    Channel(s)                               : 6 channels
    Channel positions                        : Front: L C R, Side: L R, LFE
    Sampling rate                            : 48.0 KHz
    Bit depth                                : 16 bits
    Compression mode                         : Lossy
    Stream size                              : 615 MiB (7%)
    Language                                 : English
    Encoded date                             : UTC 2015-02-22 22:25:46
    Tagged date                              : UTC 2015-02-22 22:25:53
    Text #1
    ID                                       : 6
    Format                                   : Timed text
    Muxing mode                              : sbtl
    Codec ID                                 : tx3g
    Duration                                 : 2h 6mn
    Bit rate mode                            : Variable
    Bit rate                                 : 41 bps
    Stream size                              : 37.8 KiB (0%)
    Language                                 : English
    Encoded date                             : UTC 2015-02-22 22:25:46
    Tagged date                              : UTC 2015-02-22 22:25:46
    Text #2
    ID                                       : 7
    Format                                   : Apple text
    Codec ID                                 : text
    Duration                                 : 2h 14mn
    Bit rate mode                            : Constant
    Bit rate                                 : 0 bps
    Stream size                              : 416 Bytes (0%)
    Language                                 : English
    Encoded date                             : UTC 2015-02-22 22:26:12
    Tagged date                              : UTC 2015-02-22 22:26:12
    Menu
    00:00:00.000                             : 00:00:00.000
    00:06:21.590                             : 00:06:21.506
    00:14:56.854                             : 00:14:56.771
    00:27:36.238                             : 00:27:36.154
    00:36:29.604                             : 00:36:29.521
    00:40:51.824                             : 00:40:51.741
    00:47:27.887                             : 00:47:27.803
    00:58:13.740                             : 00:58:13.657
    01:06:10.049                             : 01:06:09.966
    01:16:35.549                             : 01:16:35.424
    01:21:49.279                             : 01:21:49.196
    01:25:58.362                             : 01:25:58.278
    01:37:25.423                             : 01:37:25.339
    01:44:00.651                             : 01:44:00.568
    01:51:13.834                             : 01:51:13.750
    01:56:19.764                             : 01:56:19.681

    x264 лог

    x264 [info]: frame I:1168  Avg QP:16.81  size:204009
    x264 [info]: frame P:50247 Avg QP:18.52  size: 78070
    x264 [info]: frame B:141977 Avg QP:20.65  size: 27463
    x264 [info]: consecutive B-frames:  2.0%  4.4%  7.1% 54.9% 31.6%
    x264 [info]: mb I  I16..4:  4.9% 88.1%  7.0%
    x264 [info]: mb P  I16..4:  0.9%  8.9%  0.3%  P16..4: 43.7% 22.1% 14.3%  0.1%  0.0%    skip: 9.8%
    x264 [info]: mb B  I16..4:  0.0%  0.4%  0.0%  B16..8: 52.0%  8.4%  2.1%  direct: 3.4%  skip:33.5%  L0:46.6% L1:50.1% BI: 3.4%
    x264 [info]: 8x8 transform intra:87.9% inter:67.4%
    x264 [info]: direct mvs  spatial:98.9% temporal:1.1%
    x264 [info]: coded y,uvDC,uvAC intra: 89.5% 69.3% 40.1% inter: 28.6% 14.6% 1.0%
    x264 [info]: i16 v,h,dc,p: 34% 19% 16% 31%
    x264 [info]: i8 v,h,dc,ddl,ddr,vr,hd,vl,hu:  6%  6% 12% 12% 15% 13% 13% 11% 11%
    x264 [info]: i4 v,h,dc,ddl,ddr,vr,hd,vl,hu:  9%  9%  5% 10% 15% 15% 14% 11% 12%
    x264 [info]: i8c dc,h,v,p: 43% 25% 17% 15%
    x264 [info]: Weighted P-Frames: Y:1.3% UV:0.7%
    x264 [info]: ref P L0: 50.2%  8.4% 27.7% 12.5%  1.1%  0.0%
    x264 [info]: ref B L0: 84.4% 12.3%  3.4%
    x264 [info]: ref B L1: 91.5%  8.5%
    x264 [info]: kb/s:7994.17

    Скриншоты

    -

    Релиз подготовлен для просмотра на Apple TV, iPad, iPhone, iPod Touch.
    Для просмотра данного релиза на компьютере с ОС Windows рекомендуется использовать VLC media player
    Скачать .torrent

    Скачать торрент-файл бесплатно и на максимальной скорости!

    Как скачивать? · Что такое торрент? · Рейтинг и ограничения

    !ВНИМАНИЕ!
    Сайт не распространяет и не хранит электронные версии произведений, а занимается лишь лишь предоставлением доступа к создаваемому пользователями каталогу ссылок на торрент-файлы, которые содержат только списки хеш-сумм, убедительная просьба с жалобами обращаться напрямую к пользователю. Файлы для обмена на трекере предоставлены пользователями сайта, и администрация не несёт ответственности за их содержание. Просьба не заливать файлы, защищенные авторскими правами, а также файлы нелегального содержания!


    _________________
    [Профиль] [ЛС]
    Показать сообщения:    
    Ответить на тему

    Текущее время: Сегодня, в 06:00

    Часовой пояс: GMT + 2



    Вы не можете начинать темы
    Вы не можете отвечать на сообщения
    Вы не можете редактировать свои сообщения
    Вы не можете удалять свои сообщения
    Вы не можете голосовать в опросах
    Вы не можете прикреплять файлы к сообщениям
    Вы не можете скачивать файлы