Register  ·  Log in
Forgot password?

  • Окулус / Oculus (Майк Флэнеган / Mike Flanagan) [2014, США, ужасы, триллер, WEB-DLRip] Dub

    Reply to topic
    Author Message


    Post 30-Oct-2015 05:43



    Окулус / OculusСтрана: США
    Жанр: ужасы, триллер
    Год выпуска: 2014
    Продолжительность: 01:44:00
    Перевод: Профессиональный (полное дублирование) iTunes-Режиссер: Майк Флэнеган / Mike Flanagan-В ролях: Мигель Сандовал, Анналиса Бассо, Карен Гиллан, Джеймс Лэфферти, Скотт Грэхэм,
    Кэти Сакхофф, Рори Кокрейн, Кейт Сигел, Гаррет Райан, Брентон Туэйтес
    --Смерть родителей сильно повлияла на судьбу двух осиротевших детей. По прошествии времени, в двадцатилетнем возрасте, сестра все еще продолжает так считать и хочет доказать брату, что привидение, вышедшее из зеркала, стало причиной гибели близких людей и всех случившихся последующих бед...-
    Качество видео: WEB-DLRip
    Исходник: WEB-DLRip 720p
    Формат видео: AVI
    Видео: XviD (1.2.2) 860kbps 688x288 23.976fps
    Аудио: MP3 128kbps 2ch 16bit 48000khz


    MediaInfoLib - v0.7.62
    Complete name : F:\Мои раздачи 2\Oculus.2013.720p.x264-LEONARDO_[].avi
    Format : AVI
    Format/Info : Audio Video Interleave
    File size : 742 MiB
    Duration : 1h 44mn
    Overall bit rate : 998 Kbps
    Writing application : VirtualDubMod | || (build 2550/release)
    Writing library : VirtualDubMod build 2550/release
    ID : 0
    Format : MPEG-4 Visual
    Format profile : Advanced Simple@L5
    Format settings, BVOP : 1
    Format settings, QPel : No
    Format settings, GMC : No warppoints
    Format settings, Matrix : Default (H.263)
    Codec ID : XVID
    Codec ID/Hint : XviD
    Duration : 1h 44mn
    Bit rate : 860 Kbps
    Width : 688 pixels
    Height : 288 pixels
    Display aspect ratio : 2.40:1
    Frame rate : 23.976 fps
    Color space : YUV
    Chroma subsampling : 4:2:0
    Bit depth : 8 bits
    Scan type : Progressive
    Compression mode : Lossy
    Bits/(Pixel*Frame) : 0.181
    Stream size : 640 MiB (86%)
    Writing library : XviD 1.2.1 (UTC 2008-12-04)
    ID : 1
    Format : MPEG Audio
    Format version : Version 1
    Format profile : Layer 3
    Mode : Joint stereo
    Codec ID : 55
    Codec ID/Hint : MP3
    Duration : 1h 44mn
    Bit rate mode : Constant
    Bit rate : 128 Kbps
    Channel(s) : 2 channels
    Sampling rate : 48.0 KHz
    Compression mode : Lossy
    Stream size : 95.3 MiB (13%)
    Alignment : Aligned on interleaves
    Interleave, duration : 42 ms (1.00 video frame)
    Interleave, preload duration : 504 ms
    Writing library : LAME3.99r
    Encoding settings : -m j -V 4 -q 2 -lowpass 17 -b 128

    Скриншот c названием фильма


    Download .torrent

    Download free and at maximum speed!

    How to Download? · What is a torrent? · Ratings and Limitations

    The site does not extend and does not store electronic(digital) versions of products, and only gives access to a reference catalogue created by users on torrent-files which contain only lists of the hash-sums, the earnest entreaty, with complaints(abuse) to access directly to the user. Files for an exchange on tracker are given by users of a site, and the administration does not bear the responsibility for their maintenance. The request to not fill in the files protected by copyrights, and also files of the illegal maintenance!

    [Profile] [PM]
    Display posts from previous:    
    Reply to topic

    The time now is: Today 23:17

    All times are GMT + 3 Hours

    You cannot post new topics in this forum
    You cannot reply to topics in this forum
    You cannot edit your posts in this forum
    You cannot delete your posts in this forum
    You cannot vote in polls in this forum
    You cannot attach files in this forum
    You cannot download files in this forum