Register  ·  Log in
Forgot password?

  • Шальное ранение / Blunt Force Trauma (Кен Сэнзел / Ken Sanzel) [2015, Колумбия, Боевик, приключения, HDRip] VO (Хихикающий доктор)

    Reply to topic
    Author Message


    Post 29-Oct-2015 12:55



    Шальное ранение / Blunt Force Trauma
    Страна: Колумбия
    Жанр: Боевик, приключения
    Год выпуска: 2015
    Продолжительность: 01:36:37
    Перевод: Одноголосый закадровый [Хихикающий Доктор]
    Cубтитры: нет-Режиссер: Кен Сэнзел / Ken Sanzel-В ролях: Райан Квантен, Фрида Пинто, Микки Рурк, Джон Мак, Джейсон Гибсон, Каролина Гомес, Дэвид Виллада, Мария Шелтон, Рубен Самора, Стивен Галарсе-Описание: Это история о Джоне и Кольте, друзьях по оружию и любовниках в постели. У них разные жизненные пути, но судьба свела их вместе в смертельных дуэлях, которые являются забавой для жителей ночного города.-Релиз-группа: -Автор релиза: - -Качество видео: HDRip
    Формат видео: AVI
    Видео: XviD, 720x400, 23.976 fps, 1576 Kbps
    Аудио: AC3, 6 ch, 448 Kbps, 48.0 KHz


    Complete name : Blunt.Force.Trauma.2015.xixidok.HDRip.ExKinoRay.avi
    Format : AVI
    Format/Info : Audio Video Interleave
    File size : 1.37 GiB
    Duration : 1h 36mn
    Overall bit rate : 2 033 Kbps
    Writing application : VirtualDubMod (build 2540/release)
    Writing library : VirtualDubMod build 2540/release
    Copyright : ExKinoRay
    Video #0
    ID : 0
    Format : MPEG-4 Visual
    Format profile : Advanced Simple@L5
    Format settings, BVOP : 1
    Format settings, QPel : No
    Format settings, GMC : No warppoints
    Format settings, Matrix : Custom
    Codec ID : XVID
    Codec ID/Hint : XviD
    Duration : 1h 36mn
    Bit rate : 1 576 Kbps
    Width : 720 pixels
    Height : 400 pixels
    Display aspect ratio : 16:9
    Frame rate : 23.976 fps
    Color space : YUV
    Chroma subsampling : 4:2:0
    Bit depth : 8 bits
    Scan type : Progressive
    Compression mode : Lossy
    Bits/(Pixel*Frame) : 0.228
    Stream size : 1.06 GiB (78%)
    Writing library : XviD 73
    Audio #1
    ID : 1
    Format : AC-3
    Format/Info : Audio Coding 3
    Mode extension : CM (complete main)
    Format settings, Endianness : Big
    Codec ID : 2000
    Duration : 1h 36mn
    Bit rate mode : Constant
    Bit rate : 448 Kbps
    Channel(s) : 6 channels
    Channel positions : Front: L C R, Side: L R, LFE
    Sampling rate : 48.0 KHz
    Bit depth : 16 bits
    Compression mode : Lossy
    Stream size : 310 MiB (22%)
    Alignment : Split accross interleaves
    Interleave, duration : 42 ms (1.00 video frame)
    Interleave, preload duration : 500 ms
    Title : xixidok

    Скриншот c названием фильма


    Download .torrent

    Download free and at maximum speed!

    How to Download? · What is a torrent? · Ratings and Limitations

    The site does not extend and does not store electronic(digital) versions of products, and only gives access to a reference catalogue created by users on torrent-files which contain only lists of the hash-sums, the earnest entreaty, with complaints(abuse) to access directly to the user. Files for an exchange on tracker are given by users of a site, and the administration does not bear the responsibility for their maintenance. The request to not fill in the files protected by copyrights, and also files of the illegal maintenance!

    [Profile] [PM]
    Display posts from previous:    
    Reply to topic

    The time now is: Today 21:29

    All times are GMT + 3 Hours

    You cannot post new topics in this forum
    You cannot reply to topics in this forum
    You cannot edit your posts in this forum
    You cannot delete your posts in this forum
    You cannot vote in polls in this forum
    You cannot attach files in this forum
    You cannot download files in this forum