BitTorrentTracker PerecTracker.org
BitTorrentTracker PerecTracker.org
    
Регистрация  ·  Вход
 
 · 
Забыли пароль?

  • Шальное ранение / Blunt Force Trauma (Кен Сэнзел / Ken Sanzel) [2015, Колумбия, Боевик, приключения, HDRip] VO (Хихикающий доктор)

    Ответить на тему
     
    Автор Сообщение

    rechyn

    Создавать темы 29-Окт-2015 11:55

           

    [Цитировать]

    Шальное ранение / Blunt Force Trauma
    Страна: Колумбия
    Жанр: Боевик, приключения
    Год выпуска: 2015
    Продолжительность: 01:36:37
    Перевод: Одноголосый закадровый [Хихикающий Доктор]
    Cубтитры: нет-Режиссер: Кен Сэнзел / Ken Sanzel-В ролях: Райан Квантен, Фрида Пинто, Микки Рурк, Джон Мак, Джейсон Гибсон, Каролина Гомес, Дэвид Виллада, Мария Шелтон, Рубен Самора, Стивен Галарсе-Описание: Это история о Джоне и Кольте, друзьях по оружию и любовниках в постели. У них разные жизненные пути, но судьба свела их вместе в смертельных дуэлях, которые являются забавой для жителей ночного города.-Релиз-группа: -Автор релиза: - -Качество видео: HDRip
    Формат видео: AVI
    Видео: XviD, 720x400, 23.976 fps, 1576 Kbps
    Аудио: AC3, 6 ch, 448 Kbps, 48.0 KHz

    MediaInfo

    General
    Complete name : Blunt.Force.Trauma.2015.xixidok.HDRip.ExKinoRay.avi
    Format : AVI
    Format/Info : Audio Video Interleave
    File size : 1.37 GiB
    Duration : 1h 36mn
    Overall bit rate : 2 033 Kbps
    Writing application : VirtualDubMod 1.5.10.2 (build 2540/release)
    Writing library : VirtualDubMod build 2540/release
    Copyright : ExKinoRay
    Video #0
    ID : 0
    Format : MPEG-4 Visual
    Format profile : Advanced Simple@L5
    Format settings, BVOP : 1
    Format settings, QPel : No
    Format settings, GMC : No warppoints
    Format settings, Matrix : Custom
    Codec ID : XVID
    Codec ID/Hint : XviD
    Duration : 1h 36mn
    Bit rate : 1 576 Kbps
    Width : 720 pixels
    Height : 400 pixels
    Display aspect ratio : 16:9
    Frame rate : 23.976 fps
    Color space : YUV
    Chroma subsampling : 4:2:0
    Bit depth : 8 bits
    Scan type : Progressive
    Compression mode : Lossy
    Bits/(Pixel*Frame) : 0.228
    Stream size : 1.06 GiB (78%)
    Writing library : XviD 73
    Audio #1
    ID : 1
    Format : AC-3
    Format/Info : Audio Coding 3
    Mode extension : CM (complete main)
    Format settings, Endianness : Big
    Codec ID : 2000
    Duration : 1h 36mn
    Bit rate mode : Constant
    Bit rate : 448 Kbps
    Channel(s) : 6 channels
    Channel positions : Front: L C R, Side: L R, LFE
    Sampling rate : 48.0 KHz
    Bit depth : 16 bits
    Compression mode : Lossy
    Stream size : 310 MiB (22%)
    Alignment : Split accross interleaves
    Interleave, duration : 42 ms (1.00 video frame)
    Interleave, preload duration : 500 ms
    Title : xixidok

    Скриншот c названием фильма

    Скриншоты

    Скачать .torrent

    Скачать торрент-файл бесплатно и на максимальной скорости!

    Как скачивать? · Что такое торрент? · Рейтинг и ограничения

    !ВНИМАНИЕ!
    Сайт не распространяет и не хранит электронные версии произведений, а занимается лишь лишь предоставлением доступа к создаваемому пользователями каталогу ссылок на торрент-файлы, которые содержат только списки хеш-сумм, убедительная просьба с жалобами обращаться напрямую к пользователю. Файлы для обмена на трекере предоставлены пользователями сайта, и администрация не несёт ответственности за их содержание. Просьба не заливать файлы, защищенные авторскими правами, а также файлы нелегального содержания!


    _________________
    [Профиль] [ЛС]
    Показать сообщения:    
    Ответить на тему

    Текущее время: Сегодня, в 03:22

    Часовой пояс: GMT + 2



    Вы не можете начинать темы
    Вы не можете отвечать на сообщения
    Вы не можете редактировать свои сообщения
    Вы не можете удалять свои сообщения
    Вы не можете голосовать в опросах
    Вы не можете прикреплять файлы к сообщениям
    Вы не можете скачивать файлы