BitTorrentTracker PerecTracker.org
BitTorrentTracker PerecTracker.org
    
Регистрация  ·  Вход
 
 · 
Забыли пароль?

  • Козы / Козлиный остров / Устоять на ногах / Standing Up / Goat Island (Ди Джей Карузо / D.J. Caruso) [2013, США, Драма, семейный, WEB-DLRip] DVO (Лексикон)

    Ответить на тему
     
    Автор Сообщение

    Light

    Создавать темы 29-Окт-2015 11:55

           

    [Цитировать]

    Козы / Козлиный остров / Устоять на ногах / Standing Up / Goat Island«They ran away and found themselves»-Страна: США
    Жанр: Драма, семейный
    Год выпуска: 2013
    Продолжительность: 01:33:12-Перевод: Профессиональный (двухголосый закадровый) [Лексикон]
    Cубтитры: нет-Режиссер: Ди Джей Карузо / D.J. Caruso-В ролях: Чандлер Кентербери, Анналиса Бассо, Рада Митчелл, Вэл Килмер, Кейт Флиппен, Уильям Дж. Харрисон, Джаред Кеммерлинг, Кейт Маберли, Блейк Гриффин, Чарльз Кэррол-Описание: Двух подростков — жертв жестокого розыгрыша, популярного в их летнем лагере — раздевают догола и оставляют ночевать на безлюдном острове. Вместо того, чтобы униженными вернуться в лагерь, они решают сбежать. Впереди их ждет трехдневная одиссея, полная неожиданных открытий.-Sample | IMDB | КиноПоиск-Тип релиза: WEB-DLRip [исх. WEB-DL 1080p]
    Формат видео: AVI-Видео: 720x288 (2.50:1), 23.976 fps, XviD build 50, 980 kbps avg, 0.20 bit/pixel
    Аудио: 48 kHz, MPEG Layer 3, 2 ch, 128.00 kbps avg [Russian_DVO]-Релиз группы:
    -

    MediaInfo

    General
    Complete name : D:\Мои релизы\Standing Up_WEB-DLRip_RG_All_Films.avi
    Format : AVI
    Format/Info : Audio Video Interleave
    File size : 745 MiB
    Duration : 1h 33mn
    Overall bit rate : 1 118 Kbps
    Writing application : VirtualDubMod 1.6.0.0 SURROUND (build 2560/release)
    Writing library : VirtualDubMod build 2560/release
    Video
    ID : 0
    Format : MPEG-4 Visual
    Format profile : Advanced Simple@L5
    Format settings, BVOP : Yes
    Format settings, QPel : No
    Format settings, GMC : No warppoints
    Format settings, Matrix : Custom
    Codec ID : XVID
    Codec ID/Hint : XviD
    Duration : 1h 33mn
    Bit rate : 981 Kbps
    Width : 720 pixels
    Height : 288 pixels
    Display aspect ratio : 2.500
    Frame rate : 23.976 fps
    Color space : YUV
    Chroma subsampling : 4:2:0
    Bit depth : 8 bits
    Scan type : Progressive
    Compression mode : Lossy
    Bits/(Pixel*Frame) : 0.197
    Stream size : 654 MiB (88%)
    Writing library : XviD 1.2.1 (UTC 2008-12-04)
    Audio
    ID : 1
    Format : MPEG Audio
    Format version : Version 1
    Format profile : Layer 3
    Mode : Joint stereo
    Mode extension : MS Stereo
    Codec ID : 55
    Codec ID/Hint : MP3
    Duration : 1h 33mn
    Bit rate mode : Constant
    Bit rate : 128 Kbps
    Channel(s) : 2 channels
    Sampling rate : 48.0 KHz
    Compression mode : Lossy
    Stream size : 85.3 MiB (11%)
    Alignment : Aligned on interleaves
    Interleave, duration : 42 ms (1.00 video frame)
    Interleave, preload duration : 504 ms

    Скриншоты

    -Торрент-файл перезалит 29.10.2015 по причине замены звуковой дорожки (любительская проф)
    Скачать .torrent

    Скачать торрент-файл бесплатно и на максимальной скорости!

    Как скачивать? · Что такое торрент? · Рейтинг и ограничения

    !ВНИМАНИЕ!
    Сайт не распространяет и не хранит электронные версии произведений, а занимается лишь лишь предоставлением доступа к создаваемому пользователями каталогу ссылок на торрент-файлы, которые содержат только списки хеш-сумм, убедительная просьба с жалобами обращаться напрямую к пользователю. Файлы для обмена на трекере предоставлены пользователями сайта, и администрация не несёт ответственности за их содержание. Просьба не заливать файлы, защищенные авторскими правами, а также файлы нелегального содержания!


    _________________
    [Профиль] [ЛС]
    Показать сообщения:    
    Ответить на тему

    Текущее время: Сегодня, в 16:19

    Часовой пояс: GMT + 2



    Вы не можете начинать темы
    Вы не можете отвечать на сообщения
    Вы не можете редактировать свои сообщения
    Вы не можете удалять свои сообщения
    Вы не можете голосовать в опросах
    Вы не можете прикреплять файлы к сообщениям
    Вы не можете скачивать файлы