BitTorrentTracker PerecTracker.org
BitTorrentTracker PerecTracker.org
    
Регистрация  ·  Вход
 
 · 
Забыли пароль?

  • Катафалк (Валерий Тодоровский) [1990, Мелодрама, DVDRip]

    Ответить на тему
     
    Автор Сообщение

    Light

    Создавать темы 28-Окт-2015 23:19

           

    [Цитировать]

    Катафалк
    Жанр: Мелодрама
    Год выпуска: 1990
    Продолжительность: 1:07:43
    Режиссёр: Валерий Тодоровский
    В ролях: Вия Артмане , Андрей Ильин , Ирина Розанова , Александра Смехова , Алика Смехова , Марианна Кузнецова
    Описание: Чего не сделаешь ради счастья единственной дочери! Удачно сбыть с рук «любимое дитя» и не сильно разориться при этом — вот единственная мечта пробивной мамаши.
    Старый автомобиль — некогда шикарный символ благополучия — достанется в приданное тому простаку, который согласится пойти под венец. Но любовь вносит свои поправки.
    Описание2
    Фильм Катафалк является свободной экранизацией рассказа американской писательницы Фланнери О’Коннор. Возле побережья Черного моря в старом обветшавшем доме проживает вдова партийного деятеля Евгения Андреевна (В. Артмане) со своей немного странной дочерью Машей (И. Розанова). Но однажды беспросветную жизнь двух женщин нарушает незнакомец, невесть откуда забредшего в их дом. Кто он и что ему надобно?
    Непрошеный гость оказался бомжом по имени Александр (А. Ильин) и ему указывают на дверь. Однако тот не собирается уходить и предлагает помогать женщинам по хозяйству. А помощь там, действительно, не помешает. Тем более, что Александр не просит за это денег, ему нужны лишь ночлег и еда. Его оставляют в доме, и он потихоньку начинает ремонтировать сильно запущенное хозяйство, а однажды добирается до гаража, в котором обнаруживает ценный для себя экспонат в виде автомобиля ЗИМ. Очевидно, это старье на колесах всколыхнуло чувство утраченного достоинства, и он решает вернуть машину к жизни. А Евгению Андреевну больше волнует судьба собственной дочери. Видя желание своего работника владеть автомобилем, женщина предлагает взаимовыгодную сделку — Александр женится на Маше и, естественно, получит «раритет» в свою собственность. Заканчивается это небольшим скандалом, но все-таки стороны приходят к общему знаменателю. Дальше — все как по традиции: белое платье, ЗАГС и автомобиль ЗИМ. После росписи молодожены едут в кафе. Утомленная впечатлениями невеста не выдерживает напряжения и прямо за столиком засыпает. Александр выходит на улицу и нервно ждет, когда молодая жена проснется.
    Добротная мелодрама Валерия Тодоровского, дебютировавшего этой работой в режиссуре. И хоть его премьера пришлась на безвременье в отечественном кино, картина получила немало наград, в том числе международных. Но в прокате прошла незамеченной. Второе рождение она пережила уже в начале «нулевых», когда ее прокрутили на Московском фестивале в рамках кинодебютов прошлого столетия. Кто будет сегодня смотреть фильм Катафалк, тоже не останутся равнодушными.
    Доп. информация: Производство Мосфильм , Ялтафильм
    Семпл: https://www.sendspace.com/file/llp1s9
    Качество видео: DVDRip
    Формат видео: AVI
    Видео: XviD MPEG-4 , 704x528 (1.33:1) , 25 fps , 2 110 Kbps
    Аудио: AC3 , 48 kHz , 192.00 kbps avg , 2/0 (L,R) ch

    MediaInfo

    Complete name Катафалк 1990.avi
    Format : AVI
    Format/Info : Audio Video Interleave
    File size : 1.09 GiB
    Duration : 1h 7mn
    Overall bit rate : 2 312 Kbps
    Writing library : VirtualDub build 35491/release
    Video
    ID : 0
    Format : MPEG-4 Visual
    Format profile : Advanced Simple@L5
    Format settings, BVOP : 1
    Format settings, QPel : No
    Format settings, GMC : No warppoints
    Format settings, Matrix : Default (MPEG)
    Codec ID : XVID
    Codec ID/Hint : XviD
    Duration : 1h 7mn
    Bit rate : 2 110 Kbps
    Width : 704 pixels
    Height : 528 pixels
    Display aspect ratio : 4:3
    Frame rate : 25.000 fps
    Color space : YUV
    Chroma subsampling : 4:2:0
    Bit depth : 8 bits
    Scan type : Progressive
    Compression mode : Lossy
    Bits/(Pixel*Frame) : 0.227
    Stream size : 1 022 MiB (91%)
    Writing library : XviD 1.2.1 (UTC 2008-12-04)
    Audio
    ID : 1
    Format : AC-3
    Format/Info : Audio Coding 3
    Mode extension : CM (complete main)
    Format settings, Endianness : Big
    Codec ID : 2000
    Duration : 1h 7mn
    Bit rate mode : Constant
    Bit rate : 192 Kbps
    Channel(s) : 2 channels
    Channel positions : Front: L R
    Sampling rate : 48.0 KHz
    Compression mode : Lossy
    Stream size : 93.0 MiB (8%)
    Alignment : Aligned on interleaves
    Interleave, duration : 40 ms (1.00 video frame)
    Interleave, preload duratio : 512 ms

    Скриншоты

    Скачать .torrent

    Скачать торрент-файл бесплатно и на максимальной скорости!

    Как скачивать? · Что такое торрент? · Рейтинг и ограничения

    !ВНИМАНИЕ!
    Сайт не распространяет и не хранит электронные версии произведений, а занимается лишь лишь предоставлением доступа к создаваемому пользователями каталогу ссылок на торрент-файлы, которые содержат только списки хеш-сумм, убедительная просьба с жалобами обращаться напрямую к пользователю. Файлы для обмена на трекере предоставлены пользователями сайта, и администрация не несёт ответственности за их содержание. Просьба не заливать файлы, защищенные авторскими правами, а также файлы нелегального содержания!


    _________________
    [Профиль] [ЛС]
    Показать сообщения:    
    Ответить на тему

    Текущее время: Сегодня, в 02:35

    Часовой пояс: GMT + 2



    Вы не можете начинать темы
    Вы не можете отвечать на сообщения
    Вы не можете редактировать свои сообщения
    Вы не можете удалять свои сообщения
    Вы не можете голосовать в опросах
    Вы не можете прикреплять файлы к сообщениям
    Вы не можете скачивать файлы