BitTorrentTracker PerecTracker.org
BitTorrentTracker PerecTracker.org
    
Регистрация  ·  Вход
 
 · 
Забыли пароль?

  • Безродные звери / Beasts of No Nation (Кэри Джоджи Фукунага / Cary Joji Fukunaga) [2015, США, Драма, Военный, WEB-DLRip] VO (Васька Куролесов)

    Ответить на тему
     
    Автор Сообщение

    rechyn

    Создавать темы 28-Окт-2015 10:43

           

    [Цитировать]

    Безродные звери / Beasts of No Nation
    Страна: США
    Жанр: Драма, Военный
    Год выпуска: 2015
    Продолжительность: 02:16:32
    Перевод: Одноголосый закадровый Васька Куролесов
    Cубтитры: (испанские вшитые на надписи и язык чви)
    Оригинальная аудиодорожка: нет
    Режиссер: Кэри Джоджи Фукунага / Cary Joji Fukunaga
    В ролях: Идрис Эльба, Абрам Атта, Эммануэль Аффадзи, Рики Аделайитор, Эндрю Эйдот, Вера Ньяркоа Антви, Эйма Абебрезе, Кобана Амисса-Сэм, Френсис Уедди, Фред Нии Умуги, Джон Артур, Грейс Норти, Эммари Браун, Наталиа Андо, Мэттью Мпоке Бигг, Нана Менса, Эрнест Аббеквай, Дэвид Донто, Квоми Гадаго, Эммануэль Ато Гарти, Брайан Энджелс, Альберт Джэксон О'Дэйвис, Эндрю Эдвардс, Эммануэль Нии Адом Квей, Бернард Квей, Феликс Оппонг Кьекьеку, Эбенезер Аннанфо, Зейбон Гибсон, Рэнди Афлакпуи, Джастис Промис Азуди
    Описание: Фильм расскажет о приключениях юноши по имени Агу, которого гражданская война на западе Африки принуждает вступить в команду наемников. Судьбе мало того, что парень пережил гибель отца и исчезновение сестры и матери, она погружает его в жизнь, полную насилия и жестокости.

    Сэмпл: http://multi-up.com/1073140
    Качество видео: WEB-DLRip
    Формат видео: AVI
    Видео: xViD, 1237 Кбит/с, 720x304, 23.976 fps
    Аудио: AC-3; ~192 kbps, 48000Hz, 2 ch
    Присутствует ненорматив!

    MediaInfo

    General
    Complete name : G:\Beasts.Of.No.Nation.2015_WEBRip_KypoJIecoB.avi
    Format : AVI
    Format/Info : Audio Video Interleave
    File size : 1.37 GiB
    Duration : 2h 16mn
    Overall bit rate : 1 438 Kbps
    Video
    ID : 0
    Format : MPEG-4 Visual
    Format profile : Advanced Simple@L5
    Format settings, BVOP : 2
    Format settings, QPel : No
    Format settings, GMC : No warppoints
    Format settings, Matrix : Default (H.263)
    Codec ID : XVID
    Codec ID/Hint : XviD
    Duration : 2h 16mn
    Bit rate : 1 237 Kbps
    Width : 720 pixels
    Height : 304 pixels
    Display aspect ratio : 2.35:1
    Frame rate : 23.976 fps
    Color space : YUV
    Chroma subsampling : 4:2:0
    Bit depth : 8 bits
    Scan type : Progressive
    Compression mode : Lossy
    Bits/(Pixel*Frame) : 0.236
    Stream size : 1.18 GiB (86%)
    Writing library : XviD 67
    Audio
    ID : 1
    Format : AC-3
    Format/Info : Audio Coding 3
    Mode extension : CM (complete main)
    Format settings, Endianness : Big
    Codec ID : 2000
    Duration : 2h 16mn
    Bit rate mode : Constant
    Bit rate : 192 Kbps
    Channel(s) : 2 channels
    Channel positions : Front: L R
    Sampling rate : 48.0 KHz
    Compression mode : Lossy
    Stream size : 188 MiB (13%)
    Alignment : Split accross interleaves
    Interleave, duration : 42 ms (1.00 video frame)
    Interleave, preload duration : 500 ms

    Скриншот c названием фильма

    Скриншоты

    Скачать .torrent

    Скачать торрент-файл бесплатно и на максимальной скорости!

    Как скачивать? · Что такое торрент? · Рейтинг и ограничения

    !ВНИМАНИЕ!
    Сайт не распространяет и не хранит электронные версии произведений, а занимается лишь лишь предоставлением доступа к создаваемому пользователями каталогу ссылок на торрент-файлы, которые содержат только списки хеш-сумм, убедительная просьба с жалобами обращаться напрямую к пользователю. Файлы для обмена на трекере предоставлены пользователями сайта, и администрация не несёт ответственности за их содержание. Просьба не заливать файлы, защищенные авторскими правами, а также файлы нелегального содержания!


    _________________
    [Профиль] [ЛС]
    Показать сообщения:    
    Ответить на тему

    Текущее время: Сегодня, в 04:12

    Часовой пояс: GMT + 2



    Вы не можете начинать темы
    Вы не можете отвечать на сообщения
    Вы не можете редактировать свои сообщения
    Вы не можете удалять свои сообщения
    Вы не можете голосовать в опросах
    Вы не можете прикреплять файлы к сообщениям
    Вы не можете скачивать файлы