BitTorrentTracker PerecTracker.org
BitTorrentTracker PerecTracker.org
    
Регистрация  ·  Вход
 
 · 
Забыли пароль?

  • Тревоги первых птиц (Диамара Нижниковская) [1985, Драма, DVB-AVC]

    Ответить на тему
     
    Автор Сообщение

    Light

    Создавать темы 28-Окт-2015 06:31

           

    [Цитировать]

    Тревоги первых птиц
    Страна: СССР
    Киностудия: Беларусьфильм
    Жанр: Драма
    Год выпуска: 1985
    Продолжительность: 01:24:57
    Режиссёр: Диамара Нижниковская
    Автор сценария: Алесь Осипенко
    Оператор: Олег Авдеев
    Композитор: Владимир Кондрусевич
    Художник: Владимир Шнаревич
    В ролях: Борис Борисов, Евгений Меньшов, Марина Карманова, Светлана Тормахова, Иван Сидоров, Фёдор Валиков, Софья Горшкова, Антонина Бендова, Людмила Писарева, Наталия Дмитриева, Петр Солдатов, Николай Волков, Евгения Лыжина, Е. Донец, Юля Феофилова
    Описание: 1944 год. Сержант Василий Калина после госпиталя возвращается в родную деревню Пасторонь. Но не находит деревни: отступая, немцы сжигали все дома и минировали поля. Восстановлением хозяйства руководит бывший командир партизанского отряда Григорий Горовой. Он назначает Василия председателем колхоза. Вскоре Калина узнает, что Клавдия, которую он любил до войны, считая его погибшим, вышла замуж за Горового. Сложившаяся ситуация становится нелёгким испытанием для всех троих...
    Доп. информация: Запись потока *.ts с наземного цифрового телеканала "Беларусь 3", ремукс в *.mkv программой VideoReDo.
    Релиз:

    Мои раздачи:

    Мои раздачи

    Все
    http://RUtracker.org/forum/tracker.php?rid=9778909
    http://BY.perectracker.org/forum/tracker.php?rid=9778909
    http://UA.perectracker.org/forum/tracker.php?rid=9778909
    Избранные:
    1) Я - гражданин Республики Беларусь. Архитектурные и художественные шедевры Беларуси [2008, RUS]
    http://perectracker.org/viewtopic.php?t=3516744
    2) Государственная политика [Документальный цикл, TVRip, 2010]
    http://perectracker.org/viewtopic.php?t=3321565
    3) Беларусь. Взгляд извне [2005, документальный сериал, TVRip]
    http://perectracker.org/viewtopic.php?t=3543820
    4) Трилогия: Белая Русь, Чарующая Беларусь, Путешествие из Беларуси в Россию [2010-2011 г., Документальный, DVD5]
    http://perectracker.org/viewtopic.php?t=3442053
    5) Правда о западной «демократии» и белорусском «тоталитаризме» [Беларусь 2011, Документальное расследование]
    http://perectracker.org/viewtopic.php?t=3523672
    6) Задорнов в Беларуси. Беларусь - это значительно улучшенный Советский Союз [2010-2011 г., Интервью, TVRip]
    http://perectracker.org/viewtopic.php?t=3512134
    7) [Журнал] Экономика Беларуси (16 номеров) [2007-2010, PDF, RUS]
    http://perectracker.org/viewtopic.php?t=3309120
    8) Армия - Журнал Вооруженных сил республики Беларусь. (81 номер) [1996-2010, PDF, RUS]
    http://perectracker.org/viewtopic.php?t=3277264
    9) Страна Моя, Беларусь! Заставка телеканал СТВ Минск. Белоруссия, Мир, Несвиж и др. zweizwei [2010, рекламный ролик, заставка, HD-Video]
    http://perectracker.org/viewtopic.php?t=3480687
    10) Радзивиллы Несвижские владения Костел Божьего тела [2011 г., хроникально-документальный, TVRip]
    http://perectracker.org/viewtopic.php?t=3410980
    11) Полёты на воздушном шаре. Новогрудок. Беларусь. zweizwei / Belarus Novogrudok [2010, HD-Video]
    http://perectracker.org/viewtopic.php?t=3380821
    12) Полёты на воздушном шаре / Беларусь, Белоруссия, Гродно, Святск. zweizwei [2009, HD-Video]
    http://perectracker.org/viewtopic.php?t=3380756
    13) Вид Гродно с высоты полета (Беларусь)/Выгляд Гродна з вышыні палёту паветранага шара [222]
    http://perectracker.org/viewtopic.php?t=3369388
    14) Анархия Прямое действие. Беларусь [2011, документальный фильм, TVRip]
    http://perectracker.org/viewtopic.php?t=3485756
    15) Психология девиации (АТН, Беларусь ТВ) [2010, Информационно-аналитические и общественно-политическиепередачи, TVRip]
    http://perectracker.org/viewtopic.php?t=3542424
    16) Боль моя - Чернобыль (Беларусь, Коллектив Беларусь ТВ) [2011, Документлный, TVRip]
    http://perectracker.org/viewtopic.php?t=3546253
    17) Попов хутор и его обитатели Русс ТВ [2011, Документальный, DVD5]
    http://perectracker.org/viewtopic.php?t=3514286
    и сотни других...
    Семпл: http://rusfolder.com/44375319
    Качество видео: DVB-AVC
    Видео кодек: H.264
    Формат видео: MKV
    Видео: MPEG4 Video (H264) 720x576 (49:36) 25fps, 2 184 Kbps
    Аудио: MPEG Audio 48000Hz stereo 256kbps

    MediaInfo

    GeneralUnique ID : 302298495584548988824841185082737879317 (0xE36C928DFAFDF6E63808155DDE52E915)Complete name : D:\Новая земля 2\Художественные фильмы\Тревоги первых птиц (1985)\Тревоги первых птиц (1985).mkvFormat : MatroskaFormat version : Version 2File size : 1.48 GiBDuration : 1h 24mnOverall bit rate : 2 489 KbpsWriting application : Lavf52.64.2Writing library : Lavf52.64.2
    VideoID : 1Format : AVCFormat/Info : Advanced Video CodecFormat profile : Main@L3.0Format settings, CABAC : YesFormat settings, ReFrames : 4 framesCodec ID : V_MPEG4/ISO/AVCDuration : 1h 24mnBit rate : 2 184 KbpsWidth : 720 pixelsHeight : 576 pixelsDisplay aspect ratio : 4:3Original display aspect ratio : 4:3Frame rate mode : ConstantFrame rate : 25.000 fpsStandard : PALColor space : YUVChroma subsampling : 4:2:0Bit depth : 8 bitsScan type : MBAFFScan order : Top Field FirstBits/(Pixel*Frame) : 0.211Stream size : 1.30 GiB (88%)Default : YesForced : NoColor primaries : BT.601 PALTransfer characteristics : BT.470 System B, BT.470 System GMatrix coefficients : BT.601Color range : Limited
    AudioID : 2Format : MPEG AudioFormat version : Version 1Format profile : Layer 2Codec ID : A_MPEG/L2Codec ID/Hint : MP2Duration : 1h 24mnBit rate mode : ConstantBit rate : 256 KbpsChannel(s) : 2 channelsSampling rate : 48.0 KHzCompression mode : LossyStream size : 156 MiB (10%)Language : EnglishDefault : YesForced : No

    Скриншоты

    Скачать .torrent

    Скачать торрент-файл бесплатно и на максимальной скорости!

    Как скачивать? · Что такое торрент? · Рейтинг и ограничения

    !ВНИМАНИЕ!
    Сайт не распространяет и не хранит электронные версии произведений, а занимается лишь лишь предоставлением доступа к создаваемому пользователями каталогу ссылок на торрент-файлы, которые содержат только списки хеш-сумм, убедительная просьба с жалобами обращаться напрямую к пользователю. Файлы для обмена на трекере предоставлены пользователями сайта, и администрация не несёт ответственности за их содержание. Просьба не заливать файлы, защищенные авторскими правами, а также файлы нелегального содержания!


    _________________
    [Профиль] [ЛС]
    Показать сообщения:    
    Ответить на тему

    Текущее время: Сегодня, в 18:22

    Часовой пояс: GMT + 2



    Вы не можете начинать темы
    Вы не можете отвечать на сообщения
    Вы не можете редактировать свои сообщения
    Вы не можете удалять свои сообщения
    Вы не можете голосовать в опросах
    Вы не можете прикреплять файлы к сообщениям
    Вы не можете скачивать файлы