BitTorrentTracker PerecTracker.org
BitTorrentTracker PerecTracker.org
    
Регистрация  ·  Вход
 
 · 
Забыли пароль?

  • Путешествие к Рождественской звезде / Reisen til julestjernen (Нильс Гёуп / Nils Gaup) [2012, Норвегия, фэнтези, приключения, HDRip] MVO + Original Nor

    Ответить на тему
     
    Автор Сообщение

    Light

    Создавать темы 28-Окт-2015 06:31

           

    [Цитировать]

    Путешествие к Рождественской звезде / Reisen til julestjernen
    Страна: Норвегия
    Жанр: фэнтези, приключения
    Год выпуска: 2012
    Продолжительность: 01:16:49
    Перевод: Профессиональный (многоголосый закадровый)
    Cубтитры: нет
    Оригинальная аудиодорожка: норвежский
    Режиссер: Нильс Гёуп / Nils Gaup
    В ролях: Вильде Зейнер, Андерс Босмо Кристиансен, Агнес Киттельсен, Стиг Вернер Ме, Эйлиф Хеллум Норакер, Кристин Закариассен, Андреас Каппелен, Кнут Валле, Софи Асплин, Якоб Офтебро и другие.
    Описание: Храбрая маленькая девочка Соня отправляется в опасное путешествие, чтобы найти Рождественскую звезду, освободить королевство от заклятия и вернуть давно пропавшую принцессу. Но коварные враги всеми силами пытаются помешать ей. И тогда в покрытых снегом норвежских горах начинается настоящее волшебное приключение…
    Ссылка на предыдущие и альтернативные раздачи
    Сэмпл: http://multi-up.com/1073015
    Качество видео: HDRip
    Формат видео: AVI
    Видео: XviD, 720х304, 2.35:1, 1 654 Kbps, 24.000 fps
    Аудио: AC-3, 448 Kbps, 48.0 KHz, 6 ch
    Аудио 2: AC-3, 448 Kbps, 48.0 KHz, 6 ch

    MediaInfo

    General
    Complete name : D:\Видео\Фильмы\Путешествие к Рождественской звезде 2012.avi
    Format : AVI
    Format/Info : Audio Video Interleave
    File size : 1.38 GiB
    Duration : 1h 16mn
    Overall bit rate : 2 564 Kbps
    Writing application : VirtualDubMod 1.5.10.2 (build 2540/release)
    Writing library : VirtualDubMod build 2540/release
    Video
    ID : 0
    Format : MPEG-4 Visual
    Format profile : Advanced Simple@L5
    Format settings, BVOP : 2
    Format settings, QPel : No
    Format settings, GMC : No warppoints
    Format settings, Matrix : Default (H.263)
    Codec ID : XVID
    Codec ID/Hint : XviD
    Duration : 1h 16mn
    Bit rate : 1 654 Kbps
    Width : 720 pixels
    Height : 304 pixels
    Display aspect ratio : 2.35:1
    Frame rate : 24.000 fps
    Color space : YUV
    Chroma subsampling : 4:2:0
    Bit depth : 8 bits
    Scan type : Progressive
    Compression mode : Lossy
    Bits/(Pixel*Frame) : 0.315
    Stream size : 909 MiB (65%)
    Writing library : XviD 1.2.1 (UTC 2008-12-04)
    Audio #1
    ID : 1
    Format : AC-3
    Format/Info : Audio Coding 3
    Mode extension : CM (complete main)
    Format settings, Endianness : Big
    Codec ID : 2000
    Duration : 1h 16mn
    Bit rate mode : Constant
    Bit rate : 448 Kbps
    Channel(s) : 6 channels
    Channel positions : Front: L C R, Side: L R, LFE
    Sampling rate : 48.0 KHz
    Bit depth : 16 bits
    Compression mode : Lossy
    Stream size : 246 MiB (17%)
    Alignment : Split accross interleaves
    Interleave, duration : 42 ms (1.00 video frame)
    Interleave, preload duration : 500 ms
    Audio #2
    ID : 2
    Format : AC-3
    Format/Info : Audio Coding 3
    Mode extension : CM (complete main)
    Format settings, Endianness : Big
    Codec ID : 2000
    Duration : 1h 16mn
    Bit rate mode : Constant
    Bit rate : 448 Kbps
    Channel(s) : 6 channels
    Channel positions : Front: L C R, Side: L R, LFE
    Sampling rate : 48.0 KHz
    Bit depth : 16 bits
    Compression mode : Lossy
    Stream size : 246 MiB (17%)
    Alignment : Split accross interleaves
    Interleave, duration : 42 ms (1.00 video frame)
    Interleave, preload duration : 500 ms

    Скриншот c названием фильма

    Скриншоты



    Скачать .torrent

    Скачать торрент-файл бесплатно и на максимальной скорости!

    Как скачивать? · Что такое торрент? · Рейтинг и ограничения

    !ВНИМАНИЕ!
    Сайт не распространяет и не хранит электронные версии произведений, а занимается лишь лишь предоставлением доступа к создаваемому пользователями каталогу ссылок на торрент-файлы, которые содержат только списки хеш-сумм, убедительная просьба с жалобами обращаться напрямую к пользователю. Файлы для обмена на трекере предоставлены пользователями сайта, и администрация не несёт ответственности за их содержание. Просьба не заливать файлы, защищенные авторскими правами, а также файлы нелегального содержания!


    _________________
    [Профиль] [ЛС]
    Показать сообщения:    
    Ответить на тему

    Текущее время: Сегодня, в 12:17

    Часовой пояс: GMT + 2



    Вы не можете начинать темы
    Вы не можете отвечать на сообщения
    Вы не можете редактировать свои сообщения
    Вы не можете удалять свои сообщения
    Вы не можете голосовать в опросах
    Вы не можете прикреплять файлы к сообщениям
    Вы не можете скачивать файлы