BitTorrentTracker PerecTracker.org
BitTorrentTracker PerecTracker.org
    
Регистрация  ·  Вход
 
 · 
Забыли пароль?

  • Винт / Self Made / Boreg (Шира Геффен / Shira Geffen) [2014, Израиль, драма, HDTVRip] Sub Rus, Heb + Original Heb

    Ответить на тему
     
    Автор Сообщение

    Light

    Создавать темы 28-Окт-2015 06:31

           

    [Цитировать]

    Винт / Self Made / Boreg
    Страна: Израиль
    Жанр: драма
    Год выпуска: 2014
    Продолжительность: 01:25:15
    Перевод: Субтитры
    Cубтитры: русские (softsub), иврит (hardsub)
    Оригинальная аудиодорожка: иврит, арабский
    Режиссер: Шира Геффен / Shira Geffen
    В ролях: Сара Адлер, Самира Сарая, Дораид Лиддави, Наама Шохан, Зиад Бакри
    Описание: История двух иерусалимских женщин - израильтянки и палестинки, судьбы которых странным образом переплетаются.
    Доп. информация: Призы Иерусалимского кинофестиваля (2014) и фестиваля Американского института киноискусства (AFI Fest, 2014).
    , .
    Сэмпл: http://www.mediafire.com/watch/rrj6t5mendnyged/Sample_-_Boreg_2014.avi
    Качество видео: HDTVRip
    Формат видео: AVI
    Видео: XviD 624х352 16:9 25 кадров/сек 1007 Кбит/сек
    Аудио: MP3 48 КГц 2 канала 128 Кбит/сек
    Формат субтитров: softsub (ASS)

    Образец субтитров

    Dialogue: 0,0:11:53.12,0:11:56.79,Default,,0,0,0,,- Алло.\N- Здравствуйте, вы - начальник?
    Dialogue: 0,0:11:56.80,0:11:59.83,Default,,0,0,0,,Начальник Иерусалимского отдела.\NЧем я могу вам помочь, госпожа?
    Dialogue: 0,0:11:59.84,0:12:03.47,Default,,0,0,0,,Говорит Михаль Каям.\NЯ... у меня не хватает винта.
    Dialogue: 0,0:12:03.48,0:12:06.46,Default,,0,0,0,,То есть, я собираю вашу кровать\Nи у меня не хватает одного винта.
    Dialogue: 0,0:12:06.56,0:12:08.06,Default,,0,0,0,,Извините?
    Dialogue: 0,0:12:08.16,0:12:11.35,Default,,0,0,0,,Написано в инструкции, что должно быть\N5 винтов, а я получила 4.
    Dialogue: 0,0:12:11.45,0:12:12.31,Default,,0,0,0,,Вы уверены?
    Dialogue: 0,0:12:12.41,0:12:15.87,Default,,0,0,0,,Ладно, я не ожидала, что и вы\Nбудете сомневаться в моём рассудке.
    Dialogue: 0,0:12:15.88,0:12:20.11,Default,,0,0,0,,- Минуту.\N- Можно передвинуть мебель?
    Dialogue: 0,0:12:20.12,0:12:23.31,Default,,0,0,0,,Послушайте, сейчас у меня находится\Nсъёмочная группа с немецкого телевидения,
    Dialogue: 0,0:12:23.32,0:12:25.91,Default,,0,0,0,,и вместо того, чтобы говорить с ними\Nо моей работе, я вынуждена объяснять им,
    Dialogue: 0,0:12:25.92,0:12:27.99,Default,,0,0,0,,почему ваши доски\Nразбросаны по всем дому,
    Dialogue: 0,0:12:28.00,0:12:29.99,Default,,0,0,0,,и почему всегда, когда покупаю у вас,\Nя потом раскаиваюсь.
    Dialogue: 0,0:12:30.00,0:12:32.27,Default,,0,0,0,,- Нет необходимости нервничать.\N- Я не нервная.
    Dialogue: 0,0:12:32.28,0:12:35.03,Default,,0,0,0,,Просто мне обещали 5 винтов,\Nа я получила 4,
    Dialogue: 0,0:12:35.04,0:12:38.63,Default,,0,0,0,,и ещё эта ваша служащая\Nпыталась доказать мне, что я - лгунья.
    Dialogue: 0,0:12:38.64,0:12:41.23,Default,,0,0,0,,Этот ваш сайт рекламирует мне\Nсемью с детьми-блондинами.
    Dialogue: 0,0:12:41.24,0:12:44.07,Default,,0,0,0,,Мне не нужны дети, мне нужна кровать. И всё!
    Dialogue: 0,0:12:44.08,0:12:47.03,Default,,0,0,0,,Госпожа успокойтесь, пожалуйста,\Nвсё будет исправлено, я обещаю.
    Dialogue: 0,0:12:47.04,0:12:50.43,Default,,0,0,0,,Я лично позабочусь о том, чтобы рабочий,\Nне вложивший 5-ый винт, был уволен.
    Dialogue: 0,0:12:50.44,0:12:52.27,Default,,0,0,0,,Нет, нет необходимости увольнять, это не...
    Dialogue: 0,0:12:52.28,0:12:54.83,Default,,0,0,0,,- Такого быть не должно, чтобы забывали винт.\N- Мы готовы.
    Dialogue: 0,0:12:54.84,0:12:58.31,Default,,0,0,0,,- Желаю вам хорошего дня и, снова, извините.\N- Не...
    Dialogue: 0,0:12:58.32,0:13:03.32,Default,,0,0,0,,- Это не страшно.\N- До свидания.

    MediaInfo

    Общее
    Полное имя : Boreg 2014.avi
    Формат : AVI
    Формат/Информация : Audio Video Interleave
    Размер файла : 701 Мбайт
    Продолжительность : 1 ч. 25 м.
    Режим общего битрейта : Переменный
    Общий поток : 1149 Кбит/сек
    Программа кодирования : VirtualDubMod 1.5.10.2 (build 2540/release)
    Библиотека кодирования : VirtualDub build 35491/release
    Видео
    Идентификатор : 0
    Формат : MPEG-4 Visual
    Профиль формата : Advanced Simple@L5
    Параметр BVOP формата : 2
    Параметр QPel формата : Нет
    Параметр GMC формата : Без точки перехода
    Параметр матрицы формата : Default (H.263)
    Идентификатор кодека : XVID
    Идентификатор кодека/Подсказка : XviD
    Продолжительность : 1 ч. 25 м.
    Битрейт : 1007 Кбит/сек
    Ширина : 624 пикселя
    Высота : 352 пикселя
    Соотношение сторон : 16:9
    Частота кадров : 25,000 кадров/сек
    Цветовое пространство : YUV
    Субдискретизация насыщенности : 4:2:0
    Битовая глубина : 8 бит
    Тип развёртки : Чересстрочная
    Порядок развёртки : Нижнее поле первое
    Метод сжатия : С потерями
    Бит/(Пиксели*Кадры) : 0.183
    Размер потока : 614 Мбайт (88%)
    Библиотека кодирования : XviD 64
    Аудио
    Идентификатор : 1
    Формат : MPEG Audio
    Версия формата : Version 1
    Профиль формата : Layer 3
    Режим : Joint stereo
    Расширение режима : MS Stereo
    Идентификатор кодека : 55
    Идентификатор кодека/Подсказка : MP3
    Продолжительность : 1 ч. 25 м.
    Вид битрейта : Переменный
    Битрейт : 128 Кбит/сек
    Каналы : 2 канала
    Частота : 48,0 КГц
    Метод сжатия : С потерями
    Размер потока : 78,8 Мбайт (11%)
    Выравнивание : Соединение по промежуткам
    Продолжительность промежутка : 24 мс. (0,60 видеокадр)
    Время предзагрузки промежутка : 496 мс.

    Скриншот c названием фильма

    Скриншоты

    Скачать .torrent

    Скачать торрент-файл бесплатно и на максимальной скорости!

    Как скачивать? · Что такое торрент? · Рейтинг и ограничения

    !ВНИМАНИЕ!
    Сайт не распространяет и не хранит электронные версии произведений, а занимается лишь лишь предоставлением доступа к создаваемому пользователями каталогу ссылок на торрент-файлы, которые содержат только списки хеш-сумм, убедительная просьба с жалобами обращаться напрямую к пользователю. Файлы для обмена на трекере предоставлены пользователями сайта, и администрация не несёт ответственности за их содержание. Просьба не заливать файлы, защищенные авторскими правами, а также файлы нелегального содержания!


    _________________
    [Профиль] [ЛС]
    Показать сообщения:    
    Ответить на тему

    Текущее время: Сегодня, в 14:22

    Часовой пояс: GMT + 2



    Вы не можете начинать темы
    Вы не можете отвечать на сообщения
    Вы не можете редактировать свои сообщения
    Вы не можете удалять свои сообщения
    Вы не можете голосовать в опросах
    Вы не можете прикреплять файлы к сообщениям
    Вы не можете скачивать файлы