BitTorrentTracker PerecTracker.org
BitTorrentTracker PerecTracker.org
    
Регистрация  ·  Вход
 
 · 
Забыли пароль?

  • Жизнь в аквариуме / Жизнь на виду / Life in a fishbowl / Vonarstraeti (Балдвин Софониассон / Baldvin Zophoniasson) [2014, Исландия, мелодрама, DVDRip-AVC] Sub Rus

    Ответить на тему
     
    Автор Сообщение

    Light

    Создавать темы 28-Окт-2015 06:31

           

    [Цитировать]

    Жизнь в аквариуме / Life in a fishbowl / Vonarstraeti
    Страна: Исландия
    Жанр: мелодрама
    Год выпуска: 2014
    Продолжительность: 02:04:41
    Перевод: Субтитры (М. Васильев & С. Бельков)
    Cубтитры: русские
    Оригинальная аудиодорожка: исландский
    Режиссер: Балдвин Софониассон / Baldvin Zophoniasson
    В ролях: Гера Хильмарсдоттир, Торстейнн Бахманн, Торвальдур Давид Кристьянссон, Свейн Гуннарссон, Кристин Сигривардоттир
    Описание: Фильм – зарисовка о жизни нескольких обитателей одного города. Эйк – мать-одиночка. Она работает в детском саду, а по ночам занимается проституцией. Однажды в баре она встречает писателя-алкоголика Мори, переживающего личностный и творческий кризис. А Мори владеет большим участком земли, который хочет купить бизнесмен Сольви. Как-то раз Эйк приглашают на элитную вечеринку, где она обслуживает богатых мужчин. Среди них оказывается Сольви…
    Доп. информация: Главный исландский фильм 2014 года.
    Премия Исландской Киноакадемии в категориях:
    - лучший фильм
    - лучший режиссер
    - лучшая женская роль (Гера Хильмарсдоттир за роль Эйк)
    - лучшая мужская роль (Торстейнн Бахманн за роль Мори)


    Сэмпл
    Релиз подготовлен ВК группой Скандинавский Калейдоскоп
    Качество видео: DVDRip-AVC
    Формат видео: MKV
    Видео: 846 Kbps, 720x428@1024x428 (2.40:1), 25 000 fps, AVC
    Аудио: 448 Kbps, 48.0 KHz, 16 bits, 6 ch, AC 3
    Формат субтитров: softsub (SRT)

    MediaInfo

    General
    Unique ID : 219103150843985418646172383917287040549 (0xA4D5BB5E95C247FB9D081688437A6625)
    Complete name : C:\Users\Владелец\Desktop\исландия\Life (1).mkv
    Format : Matroska
    Format version : Version 4 / Version 2
    File size : 1.15 GiB
    Duration : 2h 4mn
    Overall bit rate : 1 321 Kbps
    Encoded date : UTC 2015-10-26 17:32:42
    Writing application : mkvmerge v7.8.0 ('River Man') 64bit built on Mar 27 2015 16:31:37
    Writing library : Lavf55.12.0
    Video
    ID : 1
    Format : AVC
    Format/Info : Advanced Video Codec
    Format profile : High@L4.1
    Format settings, CABAC : Yes
    Format settings, ReFrames : 5 frames
    Codec ID : V_MPEG4/ISO/AVC
    Duration : 2h 4mn
    Bit rate : 846 Kbps
    Width : 720 pixels
    Height : 428 pixels
    Display aspect ratio : 2.40:1
    Frame rate mode : Constant
    Frame rate : 25.000 fps
    Color space : YUV
    Chroma subsampling : 4:2:0
    Bit depth : 8 bits
    Scan type : Progressive
    Bits/(Pixel*Frame) : 0.110
    Stream size : 755 MiB (64%)
    Writing library : x264 core 142 r2479 dd79a61
    Encoding settings : cabac=1 / ref=5 / deblock=1:0:0 / analyse=0x3:0x113 / me=umh / subme=8 / psy=1 / psy_rd=1.00:0.00 / mixed_ref=1 / me_range=16 / chroma_me=1 / trellis=1 / 8x8dct=1 / cqm=0 / deadzone=21,11 / fast_pskip=1 / chroma_qp_offset=-2 / threads=6 / lookahead_threads=1 / sliced_threads=0 / nr=0 / decimate=1 / interlaced=0 / bluray_compat=0 / constrained_intra=0 / bframes=3 / b_pyramid=2 / b_adapt=2 / b_bias=0 / direct=3 / weightb=1 / open_gop=0 / weightp=2 / keyint=250 / keyint_min=25 / scenecut=40 / intra_refresh=0 / rc_lookahead=50 / rc=crf / mbtree=1 / crf=19.0 / qcomp=0.60 / qpmin=0 / qpmax=69 / qpstep=4 / vbv_maxrate=62500 / vbv_bufsize=78125 / crf_max=0.0 / nal_hrd=none / filler=0 / ip_ratio=1.40 / aq=1:1.00
    Language : Icelandic
    Default : Yes
    Forced : No
    _STATISTICS_WRITING_APP : mkvmerge v7.8.0 ('River Man') 64bit built on Mar 27 2015 16:31:37
    _STATISTICS_WRITING_DATE_UTC : 2015-10-26 17:32:42
    _STATISTICS_TAGS : BPS DURATION NUMBER_OF_FRAMES NUMBER_OF_BYTES
    DURATION : 02:04:41.880000000
    NUMBER_OF_FRAMES : 187047
    NUMBER_OF_BYTES : 814550052
    Color primaries : BT.601 PAL
    Transfer characteristics : BT.709
    Matrix coefficients : BT.601
    Audio
    ID : 2
    Format : AC-3
    Format/Info : Audio Coding 3
    Mode extension : CM (complete main)
    Format settings, Endianness : Big
    Codec ID : A_AC3
    Duration : 2h 4mn
    Bit rate mode : Constant
    Bit rate : 448 Kbps
    Channel(s) : 6 channels
    Channel positions : Front: L C R, Side: L R, LFE
    Sampling rate : 48.0 KHz
    Bit depth : 16 bits
    Compression mode : Lossy
    Stream size : 400 MiB (34%)
    Title : Surround
    Language : Icelandic
    Default : Yes
    Forced : No
    _STATISTICS_WRITING_APP : mkvmerge v7.8.0 ('River Man') 64bit built on Mar 27 2015 16:31:37
    _STATISTICS_WRITING_DATE_UTC : 2015-10-26 17:32:42
    _STATISTICS_TAGS : BPS DURATION NUMBER_OF_FRAMES NUMBER_OF_BYTES
    DURATION : 02:04:41.856000000
    NUMBER_OF_FRAMES : 233808
    NUMBER_OF_BYTES : 418983936
    Menu
    00:00:00.000 : :Chapter 1
    00:09:34.640 : :Chapter 2
    00:26:14.480 : :Chapter 3
    00:36:00.320 : :Chapter 4
    00:46:38.480 : :Chapter 5
    01:03:50.960 : :Chapter 6
    01:13:13.520 : :Chapter 7
    01:34:14.000 : :Chapter 8
    01:54:53.840 : :Chapter 9

    Скриншот c названием фильма

    Скриншоты







    Титры

    10
    00:04:30,440 --> 00:04:34,400
    Как она?
    — Отлично.
    11
    00:04:38,640 --> 00:04:40,400
    Держи.
    — Не слишком много?
    12
    00:04:41,120 --> 00:04:47,200
    Нет, здесь за этот раз
    и за предыдущий.
    13
    00:04:50,880 --> 00:04:54,680
    Увидимся через неделю
    или где-то так.
    14
    00:04:55,400 --> 00:04:56,880
    Спасибо, что посидела.
    15
    00:04:57,080 --> 00:05:00,800
    Береги себя.
    — Ладно, пока.
    16
    00:05:06,080 --> 00:05:11,400
    Привет, прелесть моя.
    Проснулась? — Да.
    17
    00:05:12,120 --> 00:05:14,600
    Весело было с Леной?
    — Ага.
    18
    00:05:15,320 --> 00:05:18,000
    Не хочешь спать?
    — Нет.
    19
    00:05:19,000 --> 00:05:23,520
    Почитать тебе?
    — Да, «Голубую планету».
    20
    00:05:24,840 --> 00:05:27,920
    Где мы остановились?
    21
    00:05:28,640 --> 00:05:32,640
    Кажется, мы читали про деревья.
    22
    00:05:33,360 --> 00:05:39,520
    Так... Мы читали
    про злого медведя.
    23
    00:05:40,240 --> 00:05:43,480
    Хочу внести на счет.
    — Номер?
    24
    00:05:44,200 --> 00:05:46,680
    17-18.
    — Эйк?
    25
    00:05:47,400 --> 00:05:49,800
    Да, пожалуйста.
    26
    00:05:55,840 --> 00:06:00,880
    У тебя кредит
    превышен на 47 000.
    27
    00:06:01,600 --> 00:06:04,400
    И срок оплаты уже прошел.
    28
    00:06:05,120 --> 00:06:08,800
    Да, у меня были
    трудности с деньгами.
    29
    00:06:09,520 --> 00:06:12,920
    Но в этом месяце
    я буду на двух работах.
    30
    00:06:13,640 --> 00:06:18,280
    Я бы хотела узнать, можно ли
    как-то поднять лимит кредита.
    31
    00:06:19,000 --> 00:06:22,040
    Чтобы покрыть его?
    Остальное я доплачу потом.
    32
    00:06:22,760 --> 00:06:24,920
    Хорошо, я посмотрю.
    33
    00:06:25,640 --> 00:06:31,560
    Это можно, но в последний раз.
    Вы уже достигли предела.
    34
    00:06:32,280 --> 00:06:35,080
    Положу это сюда.
    — Хорошо.
    35
    00:06:41,800 --> 00:06:44,960
    А что ты так рано?
    — Разве не пора обедать?
    Скачать .torrent

    Скачать торрент-файл бесплатно и на максимальной скорости!

    Как скачивать? · Что такое торрент? · Рейтинг и ограничения

    !ВНИМАНИЕ!
    Сайт не распространяет и не хранит электронные версии произведений, а занимается лишь лишь предоставлением доступа к создаваемому пользователями каталогу ссылок на торрент-файлы, которые содержат только списки хеш-сумм, убедительная просьба с жалобами обращаться напрямую к пользователю. Файлы для обмена на трекере предоставлены пользователями сайта, и администрация не несёт ответственности за их содержание. Просьба не заливать файлы, защищенные авторскими правами, а также файлы нелегального содержания!


    _________________
    [Профиль] [ЛС]
    Показать сообщения:    
    Ответить на тему

    Текущее время: Сегодня, в 04:10

    Часовой пояс: GMT + 2



    Вы не можете начинать темы
    Вы не можете отвечать на сообщения
    Вы не можете редактировать свои сообщения
    Вы не можете удалять свои сообщения
    Вы не можете голосовать в опросах
    Вы не можете прикреплять файлы к сообщениям
    Вы не можете скачивать файлы