BitTorrentTracker PerecTracker.org
BitTorrentTracker PerecTracker.org
    
Регистрация  ·  Вход
 
 · 
Забыли пароль?

  • Добро пожаловать, или Посторонним вход воспрещен (Элем Климов) [1964, СССР, комедия, семейный, BDRip HD (720p), SD (480p)] Original + SUB (rus, eng)

    Ответить на тему
     
    Автор Сообщение

    Flirldrerve

    Создавать темы 27-Окт-2015 05:21

           

    [Цитировать]

    Добро пожаловать, или Посторонним вход воспрещен
    8.253 / 10
    -Год выпуска: 1964
    Страна: СССР
    Жанр: комедия, семейный
    Продолжительность: 74 мин.
    Перевод: Не требуется
    Оригинальная аудиодорожка: Есть
    Cубтитры: Русские полные и английские полные (2 варианта)
    Режиссёр: Элем Климов
    Сценарий: Семен Лунгин, Илья Нусинов
    Оператор: Анатолий Кузнецов, Михаил Коропцов
    Композитор: Микаэл Таривердиев, Игорь Якушенко
    Художник: Борис Бланк, Владимир Камский, Людмила Ряшенцева
    Монтаж: Александра Камагорова
    В ролях: Виктор Косых, Евгений Евстигнеев, Арина Алейникова, Илья Рутберг, Лидия Смирнова, Алексей Смирнов, Нина Шацкая, Лидия Волкова, Татьяна Барышева, Александр Байков
    Мировая премьера: 9 октября 1964
    Релиз на Blu-Ray: 21 мая 2013, Lizard Cinema Trade
    Релиз на DVD: 11 января 2011, Парадиз Медиа
    Описание: Пионер Костя Иночкин, будучи в пионерском лагере, переплыл реку и оказался на запретной для посещений территории, за что и был изгнан его начальником товарищем Дыниным. Не желая доводить бабушку до инфаркта своим досрочным прибытием, мальчик тайно возвращается в лагерь, где пионеры так же тайно содержат его и предпринимают все меры, чтобы не состоялся родительский день. Ведь именно в этот день Костина бабушка заявится в лагерь...-Качество исходника: Blu-Ray 1080p
    Качество: BDRip
    Тип: 480p 720p
    Контейнер: m4v
    Видео 480p: 640x480 анаморф 658x480 at 23.976 fps, MPEG-4 AVC, ~1800 kbps avg
    Видео 720p: 992x720 at 23.976 fps, MPEG-4 AVC, ~7000 kbps avg
    Аудио#1: Russian: 48 kHz, ААС, 2/0 (L,R), ~160.00 kbps avg
    Аудио#2: Russian: 48 kHz, ААС, 1/0 (C), ~160.00 kbps avg
    Аудио#3: Russian: 48 kHz, AC3, 3/2 (L,C,R,l,r) + LFE ch, ~448 kbps avg
    Субтитры №1: Russian: |Полные|
    Субтитры №2: English: |Полные, ver. 1|
    Субтитры №3: English: |Полные, ver. 2|-

    Знаете ли Вы, что...
  • Съёмки фильма проходили в пионерском лагере, принадлежащем тресту «Воркутауголь», и расположенном в микрорайоне Алексин-Бор города Алексин Тульской области. В 70-х годах XX века на его территории были построены новые корпуса и от прежнего лагеря ничто не сохранилось.
  • Во время съёмок фильма Евгений Евстигнеев, исполнитель роли товарища Дынина, научил детей играть в карты.
  • Этот фильм — дипломная работа режиссёра Элема Климова.
  • Фильм мог не выйти в широкий прокат, так как цензура посчитала, что бабушка на портрете (сцена «похорон» бабушки Иночкина) очень уж похожа на товарища Хрущёва. Да и завуалированные насмешки над кукурузой как царицей полей сыграли свою роль. Однако по благоприятному стечению обстоятельств фильм увидел сам Никита Сергеевич, и тот ему очень понравился.
  • Роль Кости Иночкина прославила на всю страну тринадцатилетнего Витю Косых (потом он сыграет Даньку в «Неуловимых мстителях»). Ассистенты Климова нашли его в обычной школе, куда пришли за ребятами, которые умеют плавать.
  • Съёмки «Добро пожаловать…» были в самом разгаре, когда картину попытались закрыть. В съёмочную группу пришла телеграмма от дирекции «Мосфильма» с требованием свернуть все работы и возвращаться из экспедиции в Москву. И лишь мудрость директора съёмочной группы, который сказал: «А мы этой телеграммы не получали», позволила режиссёру Элему Климову закончить картину.
    -

    iTunes MetaTags

    Sort Name: Добро пожаловать, или Посторонним вход воспрещен
    XID: Apple:vendor-id:1964-44238
    contentID: 44238
    Screenwriters: Семен Лунгин, Илья Нусинов
    Producers: Г. Лукин
    Director: Элем Климов
    Cast: Виктор Косых, Евгений Евстигнеев, Арина Алейникова, Илья Рутберг, Лидия Смирнова, Алексей Смирнов, Нина Шацкая, Лидия Волкова, Татьяна Барышева, Александр Байков
    Studio: Мосфильм
    Rating: 2
    Long Description: Пионер Костя Иночкин, будучи в пионерском лагере, переплыл реку и оказался на запретной для посещений территории, за что и был изгнан его начальником товарищем Дыниным. Не желая доводить бабушку до инфаркта своим досрочным прибытием, мальчик тайно возвращается в лагерь, где пионеры так же тайно содержат его и предпринимают все меры, чтобы не состоялся родительский день. Ведь именно в этот день Костина бабушка заявится в лагерь…
    Description: Пионер Костя Иночкин, будучи в пионерском лагере, переплыл реку и оказался на запретной для посещений территории, за что и был изгнан его начальником товарищем Дыниным. Не желая доводить бабушку до инфаркта своим досрочным прибытием, мальчик тайно во
    Release Date: 1964-10-09T07:00:00Z
    Genre: Comedy
    Artist: Элем Климов
    Name: Добро пожаловать, или Посторонним вход воспрещен

    MediaInfo 480p Release

    General
    Complete name : Добро пожаловать, или Посторонним вход воспрещен.m4v
    Format : MPEG-4
    Codec ID : M4V
    File size : 1.06 GiB
    Duration : 1h 13mn
    Overall bit rate mode : Variable
    Overall bit rate : 2 069 Kbps
    Movie name : Добро пожаловать, или Посторонним вход воспрещен
    Performer : Элем Климов
    Genre : Comedy
    ContentType : Short Film
    Description : Пионер Костя Иночкин, будучи в пионерском лагере, переплыл реку и оказался на запретной для посещений территории, за что и был изгнан его начальником товарищем Дыниным. Не желая доводить бабушку до инфаркта своим досрочным прибытием, мальчик тайно во
    Recorded date : UTC 1964-10-09 07:00:00
    Encoded date : UTC 2013-06-08 16:46:03
    Tagged date : UTC 2014-10-26 09:53:58
    Cover : Yes
    Rating : None
    Title/Sort : Добро пожаловать, или Посторонним вход воспрещен
    LongDescription : Пионер Костя Иночкин, будучи в пионерском лагере, переплыл реку и оказался на запретной для посещений территории, за что и был изгнан его начальником товарищем Дыниным. Не желая доводить бабушку до инфаркта своим досрочным прибытием, мальчик тайно возвращается в лагерь, где пионеры так же тайно содержат его и предпринимают все меры, чтобы не состоялся родительский день. Ведь именно в этот день Костина бабушка заявится в лагерь…
    AppleStoreCatalogID : 44238
    Vendor : Apple:vendor-id:1964-44238
    ContentRating : ru-movie|6+|150|
    iTunMOVI : <?xml version="1.0" encoding="UTF-8"?> / <!DOCTYPE plist PUBLIC "-//Apple//DTD PLIST 1.0//EN" "http://anonym.to/?http://www.apple.com/DTDs/PropertyList-1.0.dtd"> / <plist version="1.0"> / <dict> /  <key>cast</key> /  <array> /   <dict> /    <key>name</key> /    <string>Виктор Косых</string> /   </dict> /   <dict> /    <key>name</key> /    <string>Евгений Евстигнеев</string> /   </dict> /   <dict> /    <key>name</key> /    <string>Арина Алейникова</string> /   </dict> /   <dict> /    <key>name</key> /    <string>Илья Рутберг</string> /   </dict> /   <dict> /    <key>name</key> /    <string>Лидия Смирнова</string> /   </dict> /   <dict> /    <key>name</key> /    <string>Алексей Смирнов</string> /   </dict> /   <dict> /    <key>name</key> /    <string>Нина Шацкая</string> /   </dict> /   <dict> /    <key>name</key> /    <string>Лидия Волкова</string> /   </dict> /   <dict> /    <key>name</key> /    <string>Татьяна Барышева</string> /   </dict> /   <dict> /    <key>name</key> /    <string>Александр Байков</string> /   </dict> /  </array> /  <key>directors</key> /  <array> /   <dict> /    <key>name</key> /    <string>Элем Климов</string> /   </dict> /  </array> /  <key>producers</key> /  <array> /   <dict> /    <key>name</key> /    <string>Г. Лукин</string> /   </dict> /  </array> /  <key>screenwriters</key> /  <array> /   <dict> /    <key>name</key> /    <string>Семен Лунгин</string> /   </dict> /   <dict> /    <key>name</key> /    <string>Илья Нусинов</string> /   </dict> /  </array> /  <key>studio</key> /  <string>Мосфильм</string> / </dict> / </plist>
    Video #1
    ID : 1
    Format : AVC
    Format/Info : Advanced Video Codec
    Format profile : Baseline@L3.0
    Format settings, CABAC : No
    Format settings, ReFrames : 2 frames
    Codec ID : avc1
    Codec ID/Info : Advanced Video Coding
    Duration : 1h 13mn
    Bit rate : 1 800 Kbps
    Width : 640 pixels
    Height : 480 pixels
    Display aspect ratio : 1.371
    Frame rate mode : Variable
    Frame rate : 23.976 fps
    Minimum frame rate : 23.974 fps
    Maximum frame rate : 23.981 fps
    Color space : YUV
    Chroma subsampling : 4:2:0
    Bit depth : 8 bits
    Scan type : Progressive
    Bits/(Pixel*Frame) : 0.244
    Stream size : 942 MiB (87%)
    Writing library : x264 core 125
    Encoding settings : cabac=0 / ref=2 / deblock=1:1:-3 / analyse=0x1:0x111 / me=umh / subme=6 / psy=1 / psy_rd=1.00:0.00 / mixed_ref=1 / me_range=16 / chroma_me=1 / trellis=0 / 8x8dct=0 / cqm=0 / deadzone=21,11 / fast_pskip=0 / chroma_qp_offset=-2 / threads=6 / lookahead_threads=1 / sliced_threads=0 / nr=0 / decimate=1 / interlaced=0 / bluray_compat=0 / constrained_intra=0 / bframes=0 / weightp=0 / keyint=240 / keyint_min=24 / scenecut=40 / intra_refresh=0 / rc_lookahead=40 / rc=2pass / mbtree=1 / bitrate=1800 / ratetol=1.0 / qcomp=0.60 / qpmin=3 / qpmax=69 / qpstep=4 / cplxblur=20.0 / qblur=0.5 / vbv_maxrate=5000 / vbv_bufsize=5000 / nal_hrd=none / ip_ratio=1.40 / aq=1:1.00
    Language : Russian
    Encoded date : UTC 2013-06-08 16:46:03
    Tagged date : UTC 2013-06-08 16:46:56
    Color primaries : BT.709
    Transfer characteristics : BT.709
    Matrix coefficients : BT.709
    Video #2
    ID : 8
    Format : JPEG
    Codec ID : jpeg
    Duration : 1h 13mn
    Bit rate mode : Variable
    Bit rate : 1 950 bps
    Width : 640 pixels
    Height : 466 pixels
    Display aspect ratio : 1.373
    Frame rate mode : Variable
    Frame rate : 0.003 fps
    Minimum frame rate : 0.002 fps
    Maximum frame rate : 0.006 fps
    Color space : YUV
    Chroma subsampling : 4:2:0
    Bit depth : 8 bits
    Compression mode : Lossy
    Bits/(Pixel*Frame) : 2.179
    Stream size : 1.16 MiB (0%)
    Language : Russian
    Encoded date : UTC 2014-10-26 09:53:45
    Tagged date : UTC 2014-10-26 09:53:46
    Audio #1
    ID : 2
    Format : AAC
    Format/Info : Advanced Audio Codec
    Format profile : LC
    Codec ID : 40
    Duration : 1h 13mn
    Bit rate mode : Variable
    Bit rate : 127 Kbps
    Maximum bit rate : 214 Kbps
    Channel(s) : 2 channels
    Channel positions : Front: L R
    Sampling rate : 48.0 KHz
    Compression mode : Lossy
    Stream size : 66.5 MiB (6%)
    Language : Russian
    Encoded date : UTC 2013-06-08 16:46:03
    Tagged date : UTC 2013-06-08 16:46:13
    Audio #2
    ID : 3
    Format : AAC
    Format/Info : Advanced Audio Codec
    Format profile : LC
    Codec ID : 40
    Duration : 1h 13mn
    Bit rate mode : Variable
    Bit rate : 132 Kbps
    Maximum bit rate : 151 Kbps
    Channel(s) : 2 channels
    Channel(s)_Original : 1 channel
    Channel positions : Front: C
    Sampling rate : 48.0 KHz
    Compression mode : Lossy
    Stream size : 68.9 MiB (6%)
    Language : Russian
    Encoded date : UTC 2013-06-08 16:46:03
    Tagged date : UTC 2013-06-08 16:47:06
    Text #1
    ID : 4
    Format : Timed Text
    Muxing mode : sbtl
    Codec ID : tx3g
    Duration : 1h 12mn
    Bit rate mode : Variable
    Bit rate : 71 bps
    Stream size : 37.8 KiB (0%)
    Language : Russian
    Encoded date : UTC 2014-10-26 09:53:41
    Tagged date : UTC 2014-10-26 09:53:41
    Text #2
    ID : 5
    Format : Timed Text
    Muxing mode : sbtl
    Codec ID : tx3g
    Duration : 1h 13mn
    Bit rate mode : Variable
    Bit rate : 50 bps
    Stream size : 26.9 KiB (0%)
    Language : English
    Encoded date : UTC 2014-10-26 09:53:41
    Tagged date : UTC 2014-10-26 09:53:41
    Text #3
    ID : 6
    Format : Timed Text
    Muxing mode : sbtl
    Codec ID : tx3g
    Duration : 1h 12mn
    Bit rate mode : Variable
    Bit rate : 38 bps
    Stream size : 20.3 KiB (0%)
    Language : English
    Encoded date : UTC 2014-10-26 09:53:41
    Tagged date : UTC 2014-10-26 09:53:41
    Menu #1
    00:00:00.000 : Глава 1
    00:03:39.636 : Глава 2
    00:07:41.252 : Глава 3
    00:13:04.617 : Глава 4
    00:16:49.592 : Глава 5
    00:23:13.517 : Глава 6
    00:26:13.489 : Глава 7
    00:33:42.437 : Глава 8
    00:38:29.349 : Глава 9
    00:42:10.778 : Глава 10
    00:46:03.094 : Глава 11
    00:49:15.327 : Глава 12
    00:57:17.351 : Глава 13
    01:01:05.662 : Глава 14
    01:05:37.725 : Глава 15
    Menu #2
    ID : 7
    Codec ID : text
    Duration : 1h 13mn
    Language : English
    Encoded date : UTC 2014-10-26 09:53:41
    Tagged date : UTC 2014-10-26 09:53:41
    00:00:00.000 : Глава 1
    00:03:39.636 : Глава 2
    00:07:41.252 : Глава 3
    00:13:04.617 : Глава 4
    00:16:49.592 : Глава 5
    00:23:13.517 : Глава 6
    00:26:13.489 : Глава 7
    00:33:42.437 : Глава 8
    00:38:29.349 : Глава 9
    00:42:10.778 : Глава 10
    00:46:03.094 : Глава 11
    00:49:15.327 : Глава 12
    00:57:17.351 : Глава 13
    01:01:05.662 : Глава 14
    01:05:37.725 : Глава 15
    Bit rate mode : VBR

    MediaInfo 720p Release

    General
    Complete name : Добро пожаловать, или Посторонним вход воспрещен (HD).m4v
    Format : MPEG-4
    Codec ID : M4V
    File size : 3.97 GiB
    Duration : 1h 13mn
    Overall bit rate mode : Variable
    Overall bit rate : 7 763 Kbps
    Movie name : Добро пожаловать, или Посторонним вход воспрещен
    Performer : Элем Климов
    Genre : Comedy
    ContentType : Short Film
    Description : Пионер Костя Иночкин, будучи в пионерском лагере, переплыл реку и оказался на запретной для посещений территории, за что и был изгнан его начальником товарищем Дыниным. Не желая доводить бабушку до инфаркта своим досрочным прибытием, мальчик тайно во
    Recorded date : UTC 1964-10-09 07:00:00
    Encoded date : UTC 2013-06-08 16:33:45
    Tagged date : UTC 2014-10-26 09:45:31
    Cover : Yes
    Rating : None
    Title/Sort : Добро пожаловать, или Посторонним вход воспрещен
    LongDescription : Пионер Костя Иночкин, будучи в пионерском лагере, переплыл реку и оказался на запретной для посещений территории, за что и был изгнан его начальником товарищем Дыниным. Не желая доводить бабушку до инфаркта своим досрочным прибытием, мальчик тайно возвращается в лагерь, где пионеры так же тайно содержат его и предпринимают все меры, чтобы не состоялся родительский день. Ведь именно в этот день Костина бабушка заявится в лагерь…
    HDVideo : Yes
    AppleStoreCatalogID : 44238
    Vendor : Apple:vendor-id:1964-44238
    ContentRating : ru-movie|6+|150|
    iTunMOVI : <?xml version="1.0" encoding="UTF-8"?> / <!DOCTYPE plist PUBLIC "-//Apple//DTD PLIST 1.0//EN" "http://anonym.to/?http://www.apple.com/DTDs/PropertyList-1.0.dtd"> / <plist version="1.0"> / <dict> /  <key>cast</key> /  <array> /   <dict> /    <key>name</key> /    <string>Виктор Косых</string> /   </dict> /   <dict> /    <key>name</key> /    <string>Евгений Евстигнеев</string> /   </dict> /   <dict> /    <key>name</key> /    <string>Арина Алейникова</string> /   </dict> /   <dict> /    <key>name</key> /    <string>Илья Рутберг</string> /   </dict> /   <dict> /    <key>name</key> /    <string>Лидия Смирнова</string> /   </dict> /   <dict> /    <key>name</key> /    <string>Алексей Смирнов</string> /   </dict> /   <dict> /    <key>name</key> /    <string>Нина Шацкая</string> /   </dict> /   <dict> /    <key>name</key> /    <string>Лидия Волкова</string> /   </dict> /   <dict> /    <key>name</key> /    <string>Татьяна Барышева</string> /   </dict> /   <dict> /    <key>name</key> /    <string>Александр Байков</string> /   </dict> /  </array> /  <key>directors</key> /  <array> /   <dict> /    <key>name</key> /    <string>Элем Климов</string> /   </dict> /  </array> /  <key>producers</key> /  <array> /   <dict> /    <key>name</key> /    <string>Г. Лукин</string> /   </dict> /  </array> /  <key>screenwriters</key> /  <array> /   <dict> /    <key>name</key> /    <string>Семен Лунгин</string> /   </dict> /   <dict> /    <key>name</key> /    <string>Илья Нусинов</string> /   </dict> /  </array> /  <key>studio</key> /  <string>Мосфильм</string> / </dict> / </plist>
    Video #1
    ID : 1
    Format : AVC
    Format/Info : Advanced Video Codec
    Format profile : High@L3.1
    Format settings, CABAC : No
    Format settings, ReFrames : 3 frames
    Codec ID : avc1
    Codec ID/Info : Advanced Video Coding
    Duration : 1h 13mn
    Bit rate : 7 000 Kbps
    Width : 992 pixels
    Height : 720 pixels
    Display aspect ratio : 1.378
    Frame rate mode : Variable
    Frame rate : 23.976 fps
    Minimum frame rate : 23.974 fps
    Maximum frame rate : 90 000.000 fps
    Color space : YUV
    Chroma subsampling : 4:2:0
    Bit depth : 8 bits
    Scan type : Progressive
    Bits/(Pixel*Frame) : 0.409
    Stream size : 3.57 GiB (90%)
    Writing library : x264 core 125
    Encoding settings : cabac=0 / ref=3 / deblock=1:1:-3 / analyse=0x3:0x113 / me=umh / subme=9 / psy=1 / psy_rd=0.90:0.00 / mixed_ref=1 / me_range=32 / chroma_me=1 / trellis=0 / 8x8dct=1 / cqm=0 / deadzone=21,11 / fast_pskip=1 / chroma_qp_offset=-2 / threads=6 / lookahead_threads=1 / sliced_threads=0 / nr=0 / decimate=1 / interlaced=0 / bluray_compat=0 / constrained_intra=0 / bframes=3 / b_pyramid=0 / b_adapt=2 / b_bias=0 / direct=1 / weightb=0 / open_gop=0 / weightp=0 / keyint=240 / keyint_min=24 / scenecut=40 / intra_refresh=0 / rc_lookahead=40 / rc=2pass / mbtree=1 / bitrate=7000 / ratetol=1.0 / qcomp=0.80 / qpmin=0 / qpmax=69 / qpstep=4 / cplxblur=20.0 / qblur=0.5 / vbv_maxrate=9500 / vbv_bufsize=9500 / nal_hrd=none / ip_ratio=1.40 / aq=1:1.00
    Language : Russian
    Encoded date : UTC 2013-06-08 16:33:46
    Tagged date : UTC 2013-06-08 16:38:05
    Color primaries : BT.709
    Transfer characteristics : BT.709
    Matrix coefficients : BT.709
    Video #2
    ID : 9
    Format : JPEG
    Codec ID : jpeg
    Duration : 1h 13mn
    Bit rate mode : Variable
    Bit rate : 2 056 bps
    Width : 640 pixels
    Height : 464 pixels
    Display aspect ratio : 1.379
    Frame rate mode : Variable
    Frame rate : 0.003 fps
    Minimum frame rate : 0.002 fps
    Maximum frame rate : 0.006 fps
    Color space : YUV
    Chroma subsampling : 4:2:0
    Bit depth : 8 bits
    Compression mode : Lossy
    Bits/(Pixel*Frame) : 2.308
    Stream size : 1.23 MiB (0%)
    Language : Russian
    Encoded date : UTC 2014-10-26 09:45:14
    Tagged date : UTC 2014-10-26 09:45:14
    Audio #1
    ID : 2
    Format : AAC
    Format/Info : Advanced Audio Codec
    Format profile : LC
    Codec ID : 40
    Duration : 1h 13mn
    Bit rate mode : Variable
    Bit rate : 157 Kbps
    Maximum bit rate : 267 Kbps
    Channel(s) : 2 channels
    Channel positions : Front: L R
    Sampling rate : 48.0 KHz
    Compression mode : Lossy
    Stream size : 82.2 MiB (2%)
    Language : Russian
    Encoded date : UTC 2013-06-08 16:33:46
    Tagged date : UTC 2013-06-08 16:33:57
    Audio #2
    ID : 3
    Format : AAC
    Format/Info : Advanced Audio Codec
    Format profile : LC
    Codec ID : 40
    Duration : 1h 13mn
    Bit rate mode : Variable
    Bit rate : 165 Kbps
    Maximum bit rate : 197 Kbps
    Channel(s) : 2 channels
    Channel(s)_Original : 1 channel
    Channel positions : Front: C
    Sampling rate : 48.0 KHz
    Compression mode : Lossy
    Stream size : 86.1 MiB (2%)
    Language : Russian
    Encoded date : UTC 2013-06-08 16:33:46
    Tagged date : UTC 2013-06-08 16:39:04
    Audio #3
    ID : 4
    Format : AC-3
    Format/Info : Audio Coding 3
    Mode extension : CM (complete main)
    Format settings, Endianness : Big
    Codec ID : ac-3
    Duration : 1h 13mn
    Bit rate mode : Constant
    Bit rate : 448 Kbps
    Channel(s) : 6 channels
    Channel positions : Front: L C R, Side: L R, LFE
    Sampling rate : 48.0 KHz
    Bit depth : 16 bits
    Compression mode : Lossy
    Stream size : 234 MiB (6%)
    Language : Russian
    Encoded date : UTC 2013-06-08 16:33:46
    Tagged date : UTC 2013-06-08 16:39:12
    Text #1
    ID : 5
    Format : Timed Text
    Muxing mode : sbtl
    Codec ID : tx3g
    Duration : 1h 12mn
    Bit rate mode : Variable
    Bit rate : 71 bps
    Stream size : 37.8 KiB (0%)
    Language : Russian
    Encoded date : UTC 2014-10-26 09:40:00
    Tagged date : UTC 2014-10-26 09:40:00
    Text #2
    ID : 6
    Format : Timed Text
    Muxing mode : sbtl
    Codec ID : tx3g
    Duration : 1h 13mn
    Bit rate mode : Variable
    Bit rate : 50 bps
    Stream size : 26.9 KiB (0%)
    Language : English
    Encoded date : UTC 2014-10-26 09:40:00
    Tagged date : UTC 2014-10-26 09:40:00
    Text #3
    ID : 7
    Format : Timed Text
    Muxing mode : sbtl
    Codec ID : tx3g
    Duration : 1h 12mn
    Bit rate mode : Variable
    Bit rate : 38 bps
    Stream size : 20.3 KiB (0%)
    Language : English
    Encoded date : UTC 2014-10-26 09:40:00
    Tagged date : UTC 2014-10-26 09:40:00
    Menu #1
    00:00:00.000 : Глава 1
    00:03:39.636 : Глава 2
    00:07:41.252 : Глава 3
    00:13:04.617 : Глава 4
    00:16:49.592 : Глава 5
    00:23:13.517 : Глава 6
    00:26:13.489 : Глава 7
    00:33:42.437 : Глава 8
    00:38:29.349 : Глава 9
    00:42:10.778 : Глава 10
    00:46:03.094 : Глава 11
    00:49:15.327 : Глава 12
    00:57:17.351 : Глава 13
    01:01:05.662 : Глава 14
    01:05:37.725 : Глава 15
    Menu #2
    ID : 8
    Codec ID : text
    Duration : 1h 13mn
    Language : Russian
    Encoded date : UTC 2014-10-26 09:45:07
    Tagged date : UTC 2014-10-26 09:45:07
    00:00:00.000 : Глава 1
    00:03:39.636 : Глава 2
    00:07:41.252 : Глава 3
    00:13:04.617 : Глава 4
    00:16:49.592 : Глава 5
    00:23:13.517 : Глава 6
    00:26:13.489 : Глава 7
    00:33:42.437 : Глава 8
    00:38:29.349 : Глава 9
    00:42:10.778 : Глава 10
    00:46:03.094 : Глава 11
    00:49:15.327 : Глава 12
    00:57:17.351 : Глава 13
    01:01:05.662 : Глава 14
    01:05:37.725 : Глава 15
    Bit rate mode : VBR

    x264 лог 480p Release

    x264 [info]: frame I:1625  Avg QP:23.07  size: 27414  PSNR Mean Y:42.17 U:100.00 V:100.00 Avg:43.93 Global:41.57
    x264 [info]: frame P:103640 Avg QP:25.00  size:  9098  PSNR Mean Y:37.86 U:99.99 V:99.97 Avg:39.62 Global:39.21
    x264 [info]: mb I  I16..4: 36.1%  0.0% 63.9%
    x264 [info]: mb P  I16..4:  0.4%  0.0%  2.6%  P16..4: 49.7% 20.2%  9.7%  0.0%  0.0%    skip:17.5%
    x264 [info]: coded y,uvDC,uvAC intra: 80.8% 0.0% 0.0% inter: 32.7% 0.0% 0.0%
    x264 [info]: i16 v,h,dc,p: 54% 13% 10% 23%
    x264 [info]: i4 v,h,dc,ddl,ddr,vr,hd,vl,hu: 19% 16% 16%  8%  9%  9%  9%  8%  8%
    x264 [info]: i8c dc,h,v,p: 100%  0%  0%  0%
    x264 [info]: ref P L0: 75.0% 25.0%
    x264 [info]: SSIM Mean Y:0.9530002 (13.279db)
    x264 [info]: PSNR Mean Y:37.922 U:99.987 V:99.975 Avg:39.683 Global:39.237 kb/s:1799.23

    x264 лог 720p Release

    x264 [info]: frame I:632   Avg QP:20.89  size:110866  PSNR Mean Y:42.15 U:100.00 V:100.00 Avg:43.92 Global:43.36
    x264 [info]: frame P:35342 Avg QP:22.37  size: 55492  PSNR Mean Y:39.56 U:99.96 V:99.94 Avg:41.32 Global:40.93
    x264 [info]: frame B:69291 Avg QP:23.40  size: 25966  PSNR Mean Y:38.63 U:99.95 V:99.94 Avg:40.39 Global:40.00
    x264 [info]: consecutive B-frames:  1.3% 16.5% 48.6% 33.5%
    x264 [info]: mb I  I16..4:  3.2% 57.1% 39.7%
    x264 [info]: mb P  I16..4:  0.3% 10.5%  5.0%  P16..4: 33.9% 32.8% 15.1%  0.0%  0.0%    skip: 2.3%
    x264 [info]: mb B  I16..4:  0.1%  3.3%  1.2%  B16..8: 40.2% 17.4%  5.2%  direct:10.0%  skip:22.6%  L0:35.3% L1:46.3% BI:18.4%
    x264 [info]: 8x8 transform intra:67.6% inter:43.1%
    x264 [info]: coded y,uvDC,uvAC intra: 98.4% 0.0% 0.0% inter: 50.3% 0.0% 0.0%
    x264 [info]: i16 v,h,dc,p: 39% 11% 13% 37%
    x264 [info]: i8 v,h,dc,ddl,ddr,vr,hd,vl,hu:  8%  8%  6% 11% 15% 14% 14% 11% 11%
    x264 [info]: i4 v,h,dc,ddl,ddr,vr,hd,vl,hu:  9%  8%  2% 11% 17% 16% 15% 11% 11%
    x264 [info]: i8c dc,h,v,p: 100%  0%  0%  0%
    x264 [info]: ref P L0: 72.1% 16.5% 11.3%
    x264 [info]: ref B L0: 82.3% 17.7%
    x264 [info]: SSIM Mean Y:0.9536806 (13.342db)
    x264 [info]: PSNR Mean Y:38.963 U:99.956 V:99.939 Avg:40.724 Global:40.305 kb/s:6979.69

    Скриншоты 480p Release

    Скриншоты 720p Release

    -

    Релиз подготовлен для просмотра на Apple TV, iPad, iPhone, iPod Touch.
    Для просмотра данного релиза на компьютере с ОС Windows рекомендуется использовать VLC media player
    Скачать .torrent

    Скачать торрент-файл бесплатно и на максимальной скорости!

    Как скачивать? · Что такое торрент? · Рейтинг и ограничения

    !ВНИМАНИЕ!
    Сайт не распространяет и не хранит электронные версии произведений, а занимается лишь лишь предоставлением доступа к создаваемому пользователями каталогу ссылок на торрент-файлы, которые содержат только списки хеш-сумм, убедительная просьба с жалобами обращаться напрямую к пользователю. Файлы для обмена на трекере предоставлены пользователями сайта, и администрация не несёт ответственности за их содержание. Просьба не заливать файлы, защищенные авторскими правами, а также файлы нелегального содержания!


  • _________________
    [Профиль] [ЛС]
    Показать сообщения:    
    Ответить на тему

    Текущее время: Сегодня, в 10:42

    Часовой пояс: GMT + 2



    Вы не можете начинать темы
    Вы не можете отвечать на сообщения
    Вы не можете редактировать свои сообщения
    Вы не можете удалять свои сообщения
    Вы не можете голосовать в опросах
    Вы не можете прикреплять файлы к сообщениям
    Вы не можете скачивать файлы