BitTorrentTracker PerecTracker.org
BitTorrentTracker PerecTracker.org
    
Регистрация  ·  Вход
 
 · 
Забыли пароль?

  • [ATV3] Шаг вперёд: Всё или ничего / Step Up All In (Триш Си / Trish Sie ) [2014, США, Драма, мелодрама, музыка, BDRip, HD (1080p)] DUB + Original + sub (eng)

    Ответить на тему
     
    Автор Сообщение

    Flirldrerve

    Создавать темы 27-Окт-2015 05:21

           

    [Цитировать]

    Шаг вперёд: Всё или ничего / Step Up All In
    «Every step has led to this»
    6.425 / 10 6.00 / 10
    -Год выпуска: 2014
    Страна: США
    Жанр: Драма, мелодрама, музыка
    Продолжительность: 01:51:51
    Перевод: Профессиональный (дублированный) (iTunes Russian)
    Оригинальная аудиодорожка: Есть
    Cубтитры: Английские
    Режиссёр: Триш Си
    Сценарий: Джон Сьютнем, Дуан Адлер
    Продюсер: Дженнифер Джибгот, Адам Шенкман, Джефф Диаз
    Оператор: Брайан Пирсон
    Композитор: Джефф Кардони
    Художник: Девора Херберт, Джеймс Филпотт, Соён Эн
    Монтаж: Найвен Хоуи
    В ролях: Райан Гузман, Бриана Эвиган, Стивен Босс, Миша Гэбриел Хэмилтон, Изабелла Мико, Элисон Стоунер, Адам Дж. Севани, Стивен Стево Джонс, Дэвид Шрейбман, Мари Кода
    Сборы в США: $14 904 384
    Сборы в мире: + $71 261 262 = $86 165 646
    Сборы в России: $6 301 942
    Мировая премьера: 9 июля 2014
    Премьера (РФ): 17 июля 2014, «Централ Партнершип»
    Описание: В переливающемся огнями Лас-Вегасе лучшие танцоры планеты сойдутся в батле, который решит все. Талантливый самоучка Шон и красотка Энди, мечтающие о славе и богатстве, примут участие в популярном реалити-шоу и бросят вызов «непобедимым» командам противников, а главное — самим себе. Смогут ли они преодолеть страх, пережить предательство и обуздать страсть, чтобы стать первыми и осуществить свои мечты?-Качество исходника: BDRemux
    Качество: BDRip
    Тип: HD (1080p)
    Контейнер: M4V
    Видео: H.264, 1920x1080, 16:9, 11.2 Mbps, 23.976 fps
    Аудио 1: Русский/Профессиональный (дублированный) (iTunes Russian), AAC / 2.0 / 157 Kbps / 48.0 KHz
    Аудио 2: Английский/Оригинальная дорожка , AAC / 2.0 / 158 Kbps / 48.0 KHz
    Аудио 3: Русский/Профессиональный (дублированный) (iTunes Russian), AC-3 / 5.1 / 384 Kbps / 48.0 KHz
    Аудио 4: Английский/Оригинальная дорожка , AC-3 / 5.1 / 640 Kbps / 48.0 KHz
    Субтитры: Английские полные
    -

    iTunes Meta Tags

    Sort Name: Step Up: All In
    XID: Apple:vendor_id:2014-734276
    contentID: 905576297
    Screenwriters: Джон Сьютнем, Дуан Адлер
    Producers: Дженнифер Джибгот, Адам Шенкман, Джефф Диаз
    Director: Триш Си
    Cast: Райан Гузман, Бриана Эвиган, Стивен Босс, Миша Гэбриел Хэмилтон, Изабелла Мико, Элисон Стоунер, Адам Дж. Севани, Стивен Стево Джонс, Дэвид Шрейбман, Мари Кода, Александр Гаврилин, Татьяна Шитова, Иван Жарков, Денис Яковлев, Ирина Киреева
    Rating: 10
    Long Description: В переливающемся огнями Лас-Вегасе лучшие танцоры планеты сойдутся в батле, который решит все. Талантливый самоучка Шон и красотка Энди, мечтающие о славе и богатстве, примут участие в популярном реалити-шоу и бросят вызов "непобедимым" командам противников, а главное - самим себе. Смогут ли они преодолеть страх, пережить предательство и обуздать страсть, чтобы стать первыми и осуществить свои мечты?
    Description: В переливающемся огнями Лас-Вегасе лучшие танцоры планеты сойдутся в батле, который решит все.
    Release Date: 2014-07-09T08:00:00Z
    Genre: Drama
    Artist: Trish Sie
    Name: Step Up: All In

    MediaInfo

    General
    Complete name                            : /Users/imac/HandBrake/Step Up- All In (1080p HD).m4v
    Format                                   : MPEG-4
    Codec ID                                 : M4V
    File size                                : 9.80 GiB
    Duration                                 : 1h 51mn
    Overall bit rate mode                    : Variable
    Overall bit rate                         : 12.5 Mbps
    Movie name                               : Step Up: All In
    Performer                                : Trish Sie
    Genre                                    : Drama
    Recorded date                            : UTC 2014-07-09 08:00:00
    Encoded date                             : UTC 2014-10-28 21:58:28
    Tagged date                              : UTC 2014-10-28 22:06:55
    Cover                                    : Yes
    sonm                                     : Step Up: All In
    desc                                     : В переливающемся огнями Лас-Вегасе лучшие танцоры планеты сойдутся в батле, который решит все.
    ldes                                     : В переливающемся огнями Лас-Вегасе лучшие танцоры планеты сойдутся в батле, который решит все. Талантливый самоучка Шон и красотка Энди, мечтающие о славе и богатстве, примут участие в популярном реалити-шоу и бросят вызов "непобедимым" командам противников, а главное - самим себе. Смогут ли они преодолеть страх, пережить предательство и обуздать страсть, чтобы стать первыми и осуществить свои мечты?
    hdvd                                     : 2
    stik                                     : 9
    rtng                                     : 0
    cnID                                     : 905576297
    xid                                      : Apple:vendor_id:2014-734276
    iTunEXTC                                 : mpaa|PG-13|300|
    iTunMOVI                                 : <?xml version=\"1.0\" encoding=\"UTF-8\"?> / <!DOCTYPE plist PUBLIC \"-//Apple//DTD PLIST 1.0//EN\" \"http://anonym.to/?http://www.apple.com/DTDs/PropertyList-1.0.dtd\"> / <plist version=\"1.0\"> / <dict> /  <key>cast</key> /  <array> /   <dict> /    <key>name</key> /    <string>Райан Гузман</string> /   </dict> /   <dict> /    <key>name</key> /    <string>Бриана Эвиган</string> /   </dict> /   <dict> /    <key>name</key> /    <string>Стивен Босс</string> /   </dict> /   <dict> /    <key>name</key> /    <string>Миша Гэбриел Хэмилтон</string> /   </dict> /   <dict> /    <key>name</key> /    <string>Изабелла Мико</string> /   </dict> /   <dict> /    <key>name</key> /    <string>Элисон Стоунер</string> /   </dict> /   <dict> /    <key>name</key> /    <string>Адам Дж. Севани</string> /   </dict> /   <dict> /    <key>name</key> /    <string>Стивен Стево Джонс</string> /   </dict> /   <dict> /    <key>name</key> /    <string>Дэвид Шрейбман</string> /   </dict> /   <dict> /    <key>name</key> /    <string>Мари Кода</string> /   </dict> /   <dict> /    <key>name</key> /    <string>Александр Гаврилин</string> /   </dict> /   <dict> /    <key>name</key> /    <string>Татьяна Шитова</string> /   </dict> /   <dict> /    <key>name</key> /    <string>Иван Жарков</string> /   </dict> /   <dict> /    <key>name</key> /    <string>Денис Яковлев</string> /   </dict> /   <dict> /    <key>name</key> /    <string>Ирина Киреева</string> /   </dict> /  </array> /  <key>directors</key> /  <array> /   <dict> /    <key>name</key> /    <string>Триш Си</string> /   </dict> /  </array> /  <key>producers</key> /  <array> /   <dict> /    <key>name</key> /    <string>Дженнифер Джибгот</string> /   </dict> /   <dict> /    <key>name</key> /    <string>Адам Шенкман</string> /   </dict> /   <dict> /    <key>name</key> /    <string>Джефф Диаз</string> /   </dict> /  </array> /  <key>screenwriters</key> /  <array> /   <dict> /    <key>name</key> /    <string>Джон Сьютнем</string> /   </dict> /   <dict> /    <key>name</key> /    <string>Дуан Адлер</string> /   </dict> /  </array> / </dict> / </plist>
    Video #1
    ID                                       : 1
    Format                                   : AVC
    Format/Info                              : Advanced Video Codec
    Format profile                           : High@L4.0
    Format settings, CABAC                   : Yes
    Format settings, ReFrames                : 4 frames
    Codec ID                                 : avc1
    Codec ID/Info                            : Advanced Video Coding
    Duration                                 : 1h 51mn
    Bit rate mode                            : Variable
    Bit rate                                 : 11.2 Mbps
    Width                                    : 1 920 pixels
    Height                                   : 1 080 pixels
    Display aspect ratio                     : 16:9
    Frame rate mode                          : Variable
    Frame rate                               : 23.976 fps
    Minimum frame rate                       : 23.974 fps
    Maximum frame rate                       : 23.981 fps
    Color space                              : YUV
    Chroma subsampling                       : 4:2:0
    Bit depth                                : 8 bits
    Scan type                                : Progressive
    Bits/(Pixel*Frame)                       : 0.225
    Stream size                              : 8.74 GiB (89%)
    Writing library                          : x264 core 130 r2273 b3065e6
    Encoding settings                        : cabac=1 / ref=4 / deblock=1:0:0 / analyse=0x3:0x133 / me=umh / subme=10 / psy=1 / psy_rd=1.00:0.00 / mixed_ref=1 / me_range=32 / chroma_me=1 / trellis=2 / 8x8dct=1 / cqm=0 / deadzone=21,11 / fast_pskip=1 / chroma_qp_offset=-2 / threads=12 / lookahead_threads=1 / sliced_threads=0 / nr=0 / decimate=1 / interlaced=0 / bluray_compat=0 / constrained_intra=0 / bframes=4 / b_pyramid=2 / b_adapt=2 / b_bias=0 / direct=3 / weightb=1 / open_gop=0 / weightp=2 / keyint=240 / keyint_min=24 / scenecut=40 / intra_refresh=0 / rc_lookahead=40 / rc=2pass / mbtree=0 / bitrate=11200 / ratetol=1.0 / qcomp=0.60 / qpmin=0 / qpmax=69 / qpstep=4 / cplxblur=20.0 / qblur=0.5 / vbv_maxrate=25000 / vbv_bufsize=25000 / nal_hrd=none / ip_ratio=1.40 / pb_ratio=1.30 / aq=1:1.00
    Language                                 : English
    Encoded date                             : UTC 2014-10-28 21:58:28
    Tagged date                              : UTC 2014-10-28 22:03:29
    Color primaries                          : BT.709-5, BT.1361, IEC 61966-2-4, SMPTE RP177
    Transfer characteristics                 : BT.709-5, BT.1361
    Matrix coefficients                      : BT.709-5, BT.1361, IEC 61966-2-4 709, SMPTE RP177
    Video #2
    ID                                       : 8
    Format                                   : JPEG
    Codec ID                                 : jpeg
    Duration                                 : 1h 51mn
    Bit rate mode                            : Variable
    Bit rate                                 : 1 493 bps
    Width                                    : 640 pixels
    Height                                   : 360 pixels
    Display aspect ratio                     : 16:9
    Frame rate mode                          : Variable
    Frame rate                               : 0.003 fps
    Minimum frame rate                       : 0.003 fps
    Maximum frame rate                       : 0.009 fps
    Color space                              : YUV
    Chroma subsampling                       : 4:2:0
    Bit depth                                : 8 bits
    Compression mode                         : Lossy
    Bits/(Pixel*Frame)                       : 2.160
    Stream size                              : 1.36 MiB (0%)
    Language                                 : English
    Encoded date                             : UTC 2014-10-28 22:03:41
    Tagged date                              : UTC 2014-10-28 22:03:42
    Audio #1
    ID                                       : 2
    Format                                   : AAC
    Format/Info                              : Advanced Audio Codec
    Format profile                           : LC
    Codec ID                                 : 40
    Duration                                 : 1h 51mn
    Bit rate mode                            : Variable
    Bit rate                                 : 157 Kbps
    Maximum bit rate                         : 242 Kbps
    Channel(s)                               : 2 channels
    Channel positions                        : Front: L R
    Sampling rate                            : 48.0 KHz
    Compression mode                         : Lossy
    Stream size                              : 126 MiB (1%)
    Language                                 : Russian
    Encoded date                             : UTC 2014-10-28 21:58:28
    Tagged date                              : UTC 2014-10-28 22:03:12
    Audio #2
    ID                                       : 3
    Format                                   : AAC
    Format/Info                              : Advanced Audio Codec
    Format profile                           : LC
    Codec ID                                 : 40
    Duration                                 : 1h 51mn
    Bit rate mode                            : Variable
    Bit rate                                 : 158 Kbps
    Maximum bit rate                         : 234 Kbps
    Channel(s)                               : 2 channels
    Channel positions                        : Front: L R
    Sampling rate                            : 48.0 KHz
    Compression mode                         : Lossy
    Stream size                              : 126 MiB (1%)
    Language                                 : English
    Encoded date                             : UTC 2014-10-28 21:58:28
    Tagged date                              : UTC 2014-10-28 22:03:27
    Audio #3
    ID                                       : 4
    Format                                   : AC-3
    Format/Info                              : Audio Coding 3
    Mode extension                           : CM (complete main)
    Format settings, Endianness              : Big
    Codec ID                                 : ac-3
    Duration                                 : 1h 51mn
    Bit rate mode                            : Constant
    Bit rate                                 : 384 Kbps
    Channel(s)                               : 6 channels
    Channel positions                        : Front: L C R, Side: L R, LFE
    Sampling rate                            : 48.0 KHz
    Bit depth                                : 16 bits
    Compression mode                         : Lossy
    Stream size                              : 307 MiB (3%)
    Language                                 : Russian
    Encoded date                             : UTC 2014-10-28 21:58:28
    Tagged date                              : UTC 2014-10-28 21:59:32
    Audio #4
    ID                                       : 5
    Format                                   : AC-3
    Format/Info                              : Audio Coding 3
    Mode extension                           : CM (complete main)
    Format settings, Endianness              : Big
    Codec ID                                 : ac-3
    Duration                                 : 1h 51mn
    Bit rate mode                            : Constant
    Bit rate                                 : 640 Kbps
    Channel(s)                               : 6 channels
    Channel positions                        : Front: L C R, Side: L R, LFE
    Sampling rate                            : 48.0 KHz
    Bit depth                                : 16 bits
    Compression mode                         : Lossy
    Stream size                              : 512 MiB (5%)
    Language                                 : English
    Encoded date                             : UTC 2014-10-28 21:58:28
    Tagged date                              : UTC 2014-10-28 21:59:49
    Text #1
    ID                                       : 6
    Format                                   : Timed text
    Muxing mode                              : sbtl
    Codec ID                                 : tx3g
    Duration                                 : 1h 49mn
    Bit rate mode                            : Variable
    Bit rate                                 : 58 bps
    Stream size                              : 46.3 KiB (0%)
    Language                                 : English
    Encoded date                             : UTC 2014-10-28 21:58:28
    Tagged date                              : UTC 2014-10-28 21:58:28
    Text #2
    ID                                       : 7
    Format                                   : Apple text
    Codec ID                                 : text
    Duration                                 : 1h 51mn
    Bit rate mode                            : Variable
    Bit rate                                 : 1 bps
    Stream size                              : 543 Bytes (0%)
    Language                                 : English
    Encoded date                             : UTC 2014-10-28 22:03:29
    Tagged date                              : UTC 2014-10-28 22:03:29
    Menu
    00:00:00.000                             : Chapter 1
    00:04:59.924                             : Chapter 2
    00:09:59.139                             : Chapter 3
    00:14:59.480                             : Chapter 4
    00:19:59.905                             : Chapter 5
    00:24:59.746                             : Chapter 6
    00:29:59.545                             : Chapter 7
    00:34:59.219                             : Chapter 8
    00:39:59.769                             : Chapter 9
    00:44:59.526                             : Chapter 10
    00:49:59.367                             : Chapter 11
    00:54:59.750                             : Chapter 12
    00:59:59.549                             : Chapter 13
    01:04:59.682                             : Chapter 14
    01:09:59.982                             : Chapter 15
    01:14:59.572                             : Chapter 16
    01:19:59.580                             : Chapter 17
    01:24:59.838                             : Chapter 18
    01:29:59.554                             : Chapter 19
    01:34:59.353                             : Chapter 20
    01:39:59.569                             : Chapter 21
    01:44:59.660                             : Chapter 22
    01:49:59.376                             : Chapter 23

    x264 лог

    x264 [info]: frame I:1524  Avg QP:18.71  size:250704  PSNR Mean Y:47.94 U:49.43 V:49.61 Avg:48.37 Global:47.78
    x264 [info]: frame P:50498 Avg QP:20.91  size:100202  PSNR Mean Y:44.60 U:46.58 V:46.99 Avg:45.15 Global:44.49
    x264 [info]: frame B:108899 Avg QP:22.54  size: 36218  PSNR Mean Y:43.73 U:45.87 V:46.29 Avg:44.31 Global:43.52
    x264 [info]: consecutive B-frames:  3.1%  4.5% 55.6% 21.2% 15.6%
    x264 [info]: mb I  I16..4:  4.3% 93.6%  2.1%
    x264 [info]: mb P  I16..4:  1.3% 27.6%  0.7%  P16..4: 41.4% 11.5%  8.0%  0.1%  0.0%    skip: 9.4%
    x264 [info]: mb B  I16..4:  0.3%  4.1%  0.1%  B16..8: 41.2%  8.0%  2.1%  direct: 7.3%  skip:36.8%  L0:37.2% L1:46.8% BI:16.0%
    x264 [info]: 8x8 transform intra:92.5% inter:80.7%
    x264 [info]: direct mvs  spatial:97.5% temporal:2.5%
    x264 [info]: coded y,uvDC,uvAC intra: 87.4% 92.7% 79.4% inter: 26.5% 35.2% 10.7%
    x264 [info]: i16 v,h,dc,p: 40% 18%  9% 33%
    x264 [info]: i8 v,h,dc,ddl,ddr,vr,hd,vl,hu: 15% 12% 23%  7%  8%  9%  8%  9% 10%
    x264 [info]: i4 v,h,dc,ddl,ddr,vr,hd,vl,hu: 13% 11%  4%  8% 14% 16% 13% 11% 10%
    x264 [info]: i8c dc,h,v,p: 56% 15% 15% 14%
    x264 [info]: Weighted P-Frames: Y:3.3% UV:2.8%
    x264 [info]: ref P L0: 55.3% 14.1% 20.9%  5.4%  4.1%  0.1%
    x264 [info]: ref B L0: 75.5% 20.2%  4.3%
    x264 [info]: ref B L1: 90.1%  9.9%
    x264 [info]: SSIM Mean Y:0.9775151 (16.481db)
    x264 [info]: PSNR Mean Y:44.042 U:46.130 V:46.539 Avg:44.616 Global:43.829 kb/s:11187.70

    Скриншоты

    -

    Релиз подготовлен для просмотра на Apple TV, iPad, iPhone, iPod Touch.
    Для просмотра данного релиза на компьютере с ОС Windows рекомендуется использовать VLC media player
    Скачать .torrent

    Скачать торрент-файл бесплатно и на максимальной скорости!

    Как скачивать? · Что такое торрент? · Рейтинг и ограничения

    !ВНИМАНИЕ!
    Сайт не распространяет и не хранит электронные версии произведений, а занимается лишь лишь предоставлением доступа к создаваемому пользователями каталогу ссылок на торрент-файлы, которые содержат только списки хеш-сумм, убедительная просьба с жалобами обращаться напрямую к пользователю. Файлы для обмена на трекере предоставлены пользователями сайта, и администрация не несёт ответственности за их содержание. Просьба не заливать файлы, защищенные авторскими правами, а также файлы нелегального содержания!


    _________________
    [Профиль] [ЛС]
    Показать сообщения:    
    Ответить на тему

    Текущее время: Сегодня, в 08:12

    Часовой пояс: GMT + 2



    Вы не можете начинать темы
    Вы не можете отвечать на сообщения
    Вы не можете редактировать свои сообщения
    Вы не можете удалять свои сообщения
    Вы не можете голосовать в опросах
    Вы не можете прикреплять файлы к сообщениям
    Вы не можете скачивать файлы