BitTorrentTracker PerecTracker.org
BitTorrentTracker PerecTracker.org
    
Регистрация  ·  Вход
 
 · 
Забыли пароль?

  • Космическая станция 76 / Space Station 76 (Джек Плотник) [2014, США, фантастика, драма, комедия, WEB-DL HD (720p)] MVO, Original + SUB (eng)

    Ответить на тему
     
    Автор Сообщение

    Flirldrerve

    Создавать темы 27-Окт-2015 05:21

           

    [Цитировать]

    Фильмы
    Космическая станция 76 / Space Station 76
    "Welcome to the future of your past"
    4.970 / 10
    -Год выпуска: 2014
    Страна: США
    Жанр: фантастика, драма, комедия
    Продолжительность: 95 мин.
    Перевод: Многоголосый закадровый перевод
    Оригинальная аудиодорожка: Есть
    Cубтитры: Английские полные
    Режиссёр: Джек Плотник
    Сценарий: Дженнифер Элиз Кокс, Сэм Пэнкейк, Джек Плотник
    Продюсер: Дэн Буркс, Кэтерин Энн МакГрегор, Джоэль Майкли
    Оператор: Роберт Бринкманн
    Композитор: Марк Фантини, Стеффан Фантини
    Художник: Сет Рид, Дженни Моллер, Сара Браун
    Монтаж: Шэрон Раттер
    В ролях: Патрик Уилсон, Лив Тайлер, Мариса Кохлан, Мэтт Бомер, Джерри О’Коннелл, Кайли Роджерс, Кали Роча, Виктор Тогунде, Сэм Пэнкейк, Майкл Стоянов
    Мировая премьера: 8 марта 2014
    Описание: Версия будущего 1970-х, где сталкиваются личности и астероиды.-Качество исходника: WEB-DL 720p
    Качество: WEB-DL
    Тип: 720p
    Контейнер: m4v
    Видео: 1280x530 at 23.976 fps, MPEG-4 AVC, ~4000 kbps avg
    Аудио#1: Russian: 48 kHz, ААС, 2/0 (L,R), ~160.00 kbps avg |Многоголосый закадровый, iTunes Russia|
    Аудио#2: English: 48 kHz, ААС, 2/0 (L,R), ~160.00 kbps avg |iTunes US|
    Аудио#3: Russian: 48 kHz, AC3, 3/2 (L,C,R,l,r) + LFE ch, ~384 kbps avg |Многоголосый закадровый, iTunes Russia|
    Аудио#4: English: 48 kHz, AC3, 3/2 (L,C,R,l,r) + LFE ch, ~384 kbps avg |iTunes US|
    Субтитры №1: English: |Полные, iTunes|-

    iTunes Meta Tags for country ru

    Name: Космическая Станция 76
    Artist: Jack Plotnick
    Genre: Comedy
    Release Date: 2014-03-08T08:00:00Z
    Description: Версия будущего 1970-х, где сталкиваются личности и астероиды.
    Long Description: Версия будущего 1970-х, где сталкиваются личности и астероиды.
    Rating: 18+
    Rating Annotation: Rated 18+
    Studio: Rival Pictures
    Cast: Патрик Уилсон, Лив Тайлер, Мариса Кохлан, Мэтт Бомер, Джерри О’Коннелл, Кайли Роджерс, Кали Роча, Виктор Тогунде, Сэм Пэнкейк, Майкл Стоянов
    Director: Джек Плотник
    Producers: Дэн Буркс, Кэтерин Энн МакГрегор, Джоэль Майкли
    Screenwriters: Дженнифер Элиз Кокс, Сэм Пэнкейк, Джек Плотник
    contentID: 910424272
    XID: Apple:vendor_id:2014-678269
    Sort Name: Космическая Станция 76

    iTunes Meta Tags for country us

    Name: Space Station 76
    Artist: Jack Plotnick
    Genre: Comedy
    Release Date: 2014-03-08T08:00:00Z
    Description: Версия будущего 1970-х, где сталкиваются личности и астероиды.
    Long Description: Версия будущего 1970-х, где сталкиваются личности и астероиды.
    Rating: R
    Rating Annotation: Rated R for sexuality including graphic nudity, language and some drug use
    Studio: Rival Pictures
    Cast: Патрик Уилсон, Лив Тайлер, Мариса Кохлан, Мэтт Бомер, Джерри О’Коннелл, Кайли Роджерс, Кали Роча, Виктор Тогунде, Сэм Пэнкейк, Майкл Стоянов
    Director: Джек Плотник
    Producers: Дэн Буркс, Кэтерин Энн МакГрегор, Джоэль Майкли
    Screenwriters: Дженнифер Элиз Кокс, Сэм Пэнкейк, Джек Плотник
    Copyright: © 2014 Space Station 76 LLC. All Rights Reserved.
    contentID: 910424272
    XID: Apple:vendor_id:2014-678269
    Sort Name: Space Station 76

    MediaInfo 720p Release

    General
    Complete name : Space Station 76 (HD).m4v
    Format : MPEG-4
    Codec ID : M4V
    File size : 3.41 GiB
    Duration : 1h 34mn
    Overall bit rate mode : Variable
    Overall bit rate : 5 152 Kbps
    Movie name : Space Station 76
    Performer : Jack Plotnick
    Genre : Comedy
    ContentType : Short Film
    Description : Версия будущего 1970-х, где сталкиваются личности и астероиды.
    Recorded date : UTC 2014-03-08 08:00:00
    Encoded date : UTC 2014-10-21 17:48:17
    Tagged date : UTC 2014-10-21 17:54:32
    Copyright : © 2014 Space Station 76 LLC. All Rights Reserved.
    Cover : Yes
    Rating : None
    Title/Sort : Space Station 76
    LongDescription : Версия будущего 1970-х, где сталкиваются личности и астероиды.
    HDVideo : Yes
    AppleStoreCatalogID : 910424272
    Vendor : Apple:vendor_id:2014-678269
    ContentRating : mpaa|R|400|Rated R for sexuality including graphic nudity, language and some drug use
    iTunMOVI : <?xml version="1.0" encoding="UTF-8"?> / <!DOCTYPE plist PUBLIC "-//Apple//DTD PLIST 1.0//EN" "http://anonym.to/?http://www.apple.com/DTDs/PropertyList-1.0.dtd"> / <plist version="1.0"> / <dict> /  <key>cast</key> /  <array> /   <dict> /    <key>name</key> /    <string>Патрик Уилсон</string> /   </dict> /   <dict> /    <key>name</key> /    <string>Лив Тайлер</string> /   </dict> /   <dict> /    <key>name</key> /    <string>Мариса Кохлан</string> /   </dict> /   <dict> /    <key>name</key> /    <string>Мэтт Бомер</string> /   </dict> /   <dict> /    <key>name</key> /    <string>Джерри О’Коннелл</string> /   </dict> /   <dict> /    <key>name</key> /    <string>Кайли Роджерс</string> /   </dict> /   <dict> /    <key>name</key> /    <string>Кали Роча</string> /   </dict> /   <dict> /    <key>name</key> /    <string>Виктор Тогунде</string> /   </dict> /   <dict> /    <key>name</key> /    <string>Сэм Пэнкейк</string> /   </dict> /   <dict> /    <key>name</key> /    <string>Майкл Стоянов</string> /   </dict> /  </array> /  <key>directors</key> /  <array> /   <dict> /    <key>name</key> /    <string>Джек Плотник</string> /   </dict> /  </array> /  <key>producers</key> /  <array> /   <dict> /    <key>name</key> /    <string>Дэн Буркс</string> /   </dict> /   <dict> /    <key>name</key> /    <string>Кэтерин Энн МакГрегор</string> /   </dict> /   <dict> /    <key>name</key> /    <string>Джоэль Майкли</string> /   </dict> /  </array> /  <key>screenwriters</key> /  <array> /   <dict> /    <key>name</key> /    <string>Дженнифер Элиз Кокс</string> /   </dict> /   <dict> /    <key>name</key> /    <string>Сэм Пэнкейк</string> /   </dict> /   <dict> /    <key>name</key> /    <string>Джек Плотник</string> /   </dict> /  </array> /  <key>studio</key> /  <string>Rival Pictures</string> / </dict> / </plist>
    Video #1
    ID : 1
    Format : AVC
    Format/Info : Advanced Video Codec
    Format profile : Main@L3.1
    Format settings, CABAC : No
    Format settings, ReFrames : 2 frames
    Codec ID : avc1
    Codec ID/Info : Advanced Video Coding
    Duration : 1h 34mn
    Bit rate : 4 035 Kbps
    Width : 1 280 pixels
    Height : 530 pixels
    Display aspect ratio : 2.40:1
    Frame rate mode : Variable
    Frame rate : 23.976 fps
    Minimum frame rate : 23.810 fps
    Maximum frame rate : 24.390 fps
    Color space : YUV
    Chroma subsampling : 4:2:0
    Bit depth : 8 bits
    Scan type : Progressive
    Bits/(Pixel*Frame) : 0.248
    Stream size : 2.67 GiB (78%)
    Language : English
    Encoded date : UTC 2014-10-21 17:48:17
    Tagged date : UTC 2014-10-21 17:52:55
    Color primaries : BT.709
    Transfer characteristics : BT.709
    Matrix coefficients : BT.709
    Video #2
    ID : 8
    Format : JPEG
    Codec ID : jpeg
    Duration : 1h 34mn
    Bit rate mode : Variable
    Bit rate : 686 bps
    Width : 640 pixels
    Height : 265 pixels
    Display aspect ratio : 2.40:1
    Frame rate mode : Variable
    Frame rate : 0.003 fps
    Minimum frame rate : 0.002 fps
    Maximum frame rate : 0.004 fps
    Color space : YUV
    Chroma subsampling : 4:2:0
    Bit depth : 8 bits
    Compression mode : Lossy
    Bits/(Pixel*Frame) : 1.348
    Stream size : 447 KiB (0%)
    Language : English
    Encoded date : UTC 2014-10-21 17:52:59
    Tagged date : UTC 2014-10-21 17:53:00
    Audio #1
    ID : 2
    Format : AAC
    Format/Info : Advanced Audio Codec
    Format profile : LC
    Codec ID : 40
    Duration : 1h 34mn
    Bit rate mode : Variable
    Bit rate : 164 Kbps
    Maximum bit rate : 265 Kbps
    Channel(s) : 2 channels
    Channel positions : Front: L R
    Sampling rate : 48.0 KHz
    Compression mode : Lossy
    Stream size : 111 MiB (3%)
    Language : Russian
    Encoded date : UTC 2014-10-21 17:48:17
    Tagged date : UTC 2014-10-21 17:48:47
    Audio #2
    ID : 3
    Format : AAC
    Format/Info : Advanced Audio Codec
    Format profile : LC
    Codec ID : 40
    Duration : 1h 34mn
    Bit rate mode : Variable
    Bit rate : 164 Kbps
    Maximum bit rate : 267 Kbps
    Channel(s) : 2 channels
    Channel positions : Front: L R
    Sampling rate : 48.0 KHz
    Compression mode : Lossy
    Stream size : 111 MiB (3%)
    Language : English
    Encoded date : UTC 2014-10-21 17:48:17
    Tagged date : UTC 2014-10-21 17:48:47
    Audio #3
    ID : 4
    Format : AC-3
    Format/Info : Audio Coding 3
    Mode extension : CM (complete main)
    Format settings, Endianness : Big
    Codec ID : ac-3
    Duration : 1h 34mn
    Bit rate mode : Constant
    Bit rate : 384 Kbps
    Channel(s) : 6 channels
    Channel positions : Front: L C R, Side: L R, LFE
    Sampling rate : 48.0 KHz
    Bit depth : 16 bits
    Compression mode : Lossy
    Stream size : 261 MiB (7%)
    Language : Russian
    Encoded date : UTC 2014-10-21 17:48:17
    Tagged date : UTC 2014-10-21 17:52:55
    Audio #4
    ID : 5
    Format : AC-3
    Format/Info : Audio Coding 3
    Mode extension : CM (complete main)
    Format settings, Endianness : Big
    Codec ID : ac-3
    Duration : 1h 34mn
    Bit rate mode : Constant
    Bit rate : 384 Kbps
    Channel(s) : 6 channels
    Channel positions : Front: L C R, Side: L R, LFE
    Sampling rate : 48.0 KHz
    Bit depth : 16 bits
    Compression mode : Lossy
    Stream size : 261 MiB (7%)
    Language : English
    Encoded date : UTC 2014-10-21 17:48:17
    Tagged date : UTC 2014-10-21 17:52:55
    Text
    ID : 6
    Format : Timed Text
    Muxing mode : sbtl
    Codec ID : tx3g
    Duration : 1h 31mn
    Bit rate mode : Variable
    Bit rate : 72 bps
    Stream size : 48.6 KiB (0%)
    Language : English
    Encoded date : UTC 2014-10-21 17:48:17
    Tagged date : UTC 2014-10-21 17:48:17
    Menu #1
    00:00:00.000 : 1
    00:05:26.000 : 2
    00:10:52.000 : 3
    00:16:42.000 : 4
    00:21:12.000 : 5
    00:26:28.000 : 6
    00:33:03.000 : 7
    00:40:21.000 : 8
    00:45:47.000 : 9
    00:50:56.000 : 10
    00:56:37.000 : 11
    01:07:05.000 : 12
    01:11:38.000 : 13
    01:16:28.000 : 14
    01:24:05.000 : 15
    01:30:37.000 : 16
    Menu #2
    ID : 7
    Codec ID : text
    Duration : 1h 34mn
    Language : English
    Encoded date : UTC 2014-10-21 17:52:56
    Tagged date : UTC 2014-10-21 17:52:56
    00:00:00.000 : 1
    00:05:26.000 : 2
    00:10:52.000 : 3
    00:16:42.000 : 4
    00:21:12.000 : 5
    00:26:28.000 : 6
    00:33:03.000 : 7
    00:40:21.000 : 8
    00:45:47.000 : 9
    00:50:56.000 : 10
    00:56:37.000 : 11
    01:07:05.000 : 12
    01:11:38.000 : 13
    01:16:28.000 : 14
    01:24:05.000 : 15
    01:30:37.000 : 16
    Bit rate mode : VBR

    Скриншоты 720p Release

    -

    Релиз подготовлен для просмотра на Apple TV, iPad, iPhone, iPod Touch.
    Для просмотра данного релиза на компьютере с ОС Windows рекомендуется использовать VLC media player
    Скачать .torrent

    Скачать торрент-файл бесплатно и на максимальной скорости!

    Как скачивать? · Что такое торрент? · Рейтинг и ограничения

    !ВНИМАНИЕ!
    Сайт не распространяет и не хранит электронные версии произведений, а занимается лишь лишь предоставлением доступа к создаваемому пользователями каталогу ссылок на торрент-файлы, которые содержат только списки хеш-сумм, убедительная просьба с жалобами обращаться напрямую к пользователю. Файлы для обмена на трекере предоставлены пользователями сайта, и администрация не несёт ответственности за их содержание. Просьба не заливать файлы, защищенные авторскими правами, а также файлы нелегального содержания!


    _________________
    [Профиль] [ЛС]
    Показать сообщения:    
    Ответить на тему

    Текущее время: Сегодня, в 10:31

    Часовой пояс: GMT + 2



    Вы не можете начинать темы
    Вы не можете отвечать на сообщения
    Вы не можете редактировать свои сообщения
    Вы не можете удалять свои сообщения
    Вы не можете голосовать в опросах
    Вы не можете прикреплять файлы к сообщениям
    Вы не можете скачивать файлы