BitTorrentTracker PerecTracker.org
BitTorrentTracker PerecTracker.org
    
Регистрация  ·  Вход
 
 · 
Забыли пароль?

  • Код апокалипсиса (Вадим Шмелев) [2007, боевик, приключения, BDRip, HD (1080p, 720p)] Original + SUB (eng)

    Ответить на тему
     
    Автор Сообщение

    Flirldrerve

    Создавать темы 27-Окт-2015 05:21

           

    [Цитировать]

    Код апокалипсиса
    4.393 / 10
    -Год выпуска: 2007
    Страна: Россия
    Жанр: боевик, приключения
    Продолжительность: 105 мин.
    Режиссёр: Вадим Шмелев
    Сценарий: Денис Карышев, Вадим Шмелев
    Продюсер: Сергей Грибков, Сергей Баженов, Марианна Балашова
    В ролях: Анастасия Заворотнюк, Венсан Перес, Владимир Меньшов, Алексей Серебряков, Олег Штефанко, Оскар Кучера, Сергей Газаров, Борис Токарев, Георгий Тесля-Герасимов, Анжелика Каширина, Сергей Бурунов
    Роли дублировали: Сергей Бурунов
    Бюджет: 400 000 000 руб.
    Сборы в мире:
    Сборы в России: $8 035 021
    Мировая премьера: 4 октября 2007
    Премьера (РФ): 4 октября 2007, Каропрокат
    Релиз на DVD: 10 сентября 2009, Мистерия Звука
    Описание: Террорист N1 Джаффад Бен Зайиди похитил с затонувшей американской подлодки четыре ядерные боеголовки, спрятав их в крупнейших мегаполисах мира. Заряд активируется одиннадцатизначным кодом, узнать который можно лишь собрав воедино цифры, известные трем приближенным Джаффада, которых никто не видел в лицо.
    Но террориста убивают при странных обстоятельствах, а его бывший напарник по прозвищу Палач намерен привести бомбы в действие. По его следу пускаются объединившие усилия ФСБ и ЦРУ, чей агент Мари несколько лет назад внедрилась в группировку Джаффада. Теперь под новой легендой ей предстоит спасти мир.-Качество исходника: Blu-Ray 1080p
    Качество: BDRip
    Тип: 720p 1080p
    Контейнер: m4v
    Видео: 1280x544 at 23.976 fps, MPEG-4 AVC, ~3300 kbps avg
    Видео: 1920x816 at 23.976 fps, MPEG-4 AVC, ~8800 kbps avg
    Аудио#1: Russian: 48 kHz, ААС, 2/0 (L,R), ~160.00 kbps avg
    Аудио#2: Russian: 48 kHz, AC3, 3/2 (L,C,R,l,r) + LFE ch, ~448 kbps avg-Субтитры №1: English: |Полные-
    -

    Знаете ли Вы, что...
  • Рабочее название фильма — «Красивая» (оперативный псевдоним агента ФСБ, в исполнении Анастасии Заворотнюк).
  • Помимо Франции, Италии, Норвегии, Малайзии и Украины, съемки планировались в Лос-Анжелесе и Гаване. В окончательный вариант сценария эти сцены не вошли и съемки были отменены.
  • Режиссер фильма Вадим Шмелев во время выбора натуры для съемок налетал на самолете более 200 часов.
  • На парижской улице Ампер ночью снимали погоню. Чтобы добавить света, на домах развесили гигантские гелиевые шары, и местные жители с удивлением выходили на балконы, чтобы полюбоваться фантастическим видом. Автомобильные трюки в этой сцене ставила команда каскадеров, работавшая в фильме «Такси».
  • Во Флоренции в президентском люксе шикарного отеля The Westin Excelsior во время съемок сработала противопожарная сигнализация, среагировав на мощный световой прибор, стоявший в коридоре. В итоге залило три этажа гостиницы вместе с бесценными гобеленами, картинами и антикварной мебелью. Вода с балконов стекала прямо на улицу. Только одна комната осталась сухой, потому что члены группы заткнули щель под дверью одеждой и сорок минут отсасывали воду пылесосом, чтобы не отменять съемки! Через два дня в этом номере поселился Сильвио Берлускони.
  • В фильме Анастасия Заворотнюк впервые снялась обнаженной в душе. Кстати, после второго дубля в душе закончилась теплая вода. Выяснилось, что большинство домов в Париже имеют свою бойлерную, где вода нагревается постепенно. Теплой воды так и не дождались, пришлось Насте стоять под холодной. Если внимательно присмотреться, то в кадре заметно, как дрожат от холода ее губы, когда она говорит по телефону.
  • Новый образ спецагента — стрижку и грим — для Анастасии Заворотнюк разработал Арно Сольдуран, личный стилист Шэрон Стоун.
  • Во время съемок в Париже пришлось на день перекрыть одну из центральных улиц, а на площади Конкорд — поставить 25-ти метровый кран.
    -

    iTunes Meta Tags

    Name: Код апокалипсиса
    Artist: Вадим Шмелев
    Genre: боевик, приключения
    Release Date: 2007-10-04T08:00:00Z
    Description: Террорист N1 Джаффад Бен Зайиди похитил с затонувшей американской подлодки четыре ядерные боеголовки, спрятав их в крупнейших мегаполисах мира. Заряд активируется одиннадцатизначным кодом, узнать который можно лишь собрав воедино цифры, известные трем приближенным Джаффада, которых никто не видел в лицо...
    Long Description: Террорист N1 Джаффад Бен Зайиди похитил с затонувшей американской подлодки четыре ядерные боеголовки, спрятав их в крупнейших мегаполисах мира. Заряд активируется одиннадцатизначным кодом, узнать который можно лишь собрав воедино цифры, известные трем приближенным Джаффада, которых никто не видел в лицо. Но террориста убивают при странных обстоятельствах, а его бывший напарник по прозвищу Палач намерен привести бомбы в действие. По его следу пускаются объединившие усилия ФСБ и ЦРУ, чей агент Мари несколько лет назад внедрилась в группировку Джаффада. Теперь под новой легендой ей предстоит спасти мир.
    Cast: Анастасия Заворотнюк, Венсан Перес, Владимир Меньшов, Алексей Серебряков, Олег Штефанко, Оскар Кучера, Сергей Газаров, Борис Токарев, Георгий Тесля-Герасимов, Анжелика Каширина, Сергей Бурунов
    Director: Вадим Шмелев
    Producers: Сергей Грибков, Сергей Баженов, Марианна Балашова
    Screenwriters: Денис Карышев, Вадим Шмелев
    contentID: 257772
    XID: Apple:vendor_id:2007-257772
    Sort Name: Код апокалипсиса

    MediaInfo 720p Release

    Общее
    Полное имя                               : Z:\ATV\Kod apokalipsisa\Kod apokalipsisa (HD).m4v
    Формат                                   : MPEG-4
    Идентификатор кодека                     : M4V
    Размер файла                             : 2,96 Гбайт
    Продолжительность                        : 1 ч. 50 м.
    Режим общего битрейта                    : Переменный
    Общий поток                              : 3855 Кбит/сек
    Название фильма                          : Код апокалипсиса
    Исполнитель                              : Вадим Шмелев
    Жанр                                     : боевик, приключения
    Дата записи                              : UTC 2007-10-04 08:00:00
    Дата кодирования                         : UTC 2014-10-29 06:37:43
    Дата пометки                             : UTC 2014-10-29 11:16:13
    Обложка                                  : Yes
    sonm                                     : Код апокалипсиса
    desc                                     : Террорист N1 Джаффад Бен Зайиди похитил с затонувшей американской подлодки четыре ядерные боеголовки, спрятав их в крупнейших мегаполисах мира. Заряд активируется одиннадцатизначным кодом, узнать который можно лишь собрав воедино цифры, известные трем приближенным Джаффада, которых никто не видел в лицо...
    ldes                                     : Террорист N1 Джаффад Бен Зайиди похитил с затонувшей американской подлодки четыре ядерные боеголовки, спрятав их в крупнейших мегаполисах мира. Заряд активируется одиннадцатизначным кодом, узнать который можно лишь собрав воедино цифры, известные трем приближенным Джаффада, которых никто не видел в лицо. / Но террориста убивают при странных обстоятельствах, а его бывший напарник по прозвищу Палач намерен привести бомбы в действие. По его следу пускаются объединившие усилия ФСБ и ЦРУ, чей агент Мари несколько лет назад внедрилась в группировку Джаффада. Теперь под новой легендой ей предстоит спасти мир.
    hdvd                                     : 1
    stik                                     : 9
    rtng                                     : 0
    cnID                                     : 257772
    xid                                      : Apple:vendor_id:KP-2007-257772
    iTunMOVI                                 : <?xml version="1.0" encoding="UTF-8"?> / <!DOCTYPE plist PUBLIC "-//Apple//DTD PLIST 1.0//EN" "http://anonym.to/?http://www.apple.com/DTDs/PropertyList-1.0.dtd"> / <plist version="1.0"> / <dict> /  <key>cast</key> /  <array> /   <dict> /    <key>name</key> /    <string>Анастасия Заворотнюк</string> /   </dict> /   <dict> /    <key>name</key> /    <string>Венсан Перес</string> /   </dict> /   <dict> /    <key>name</key> /    <string>Владимир Меньшов</string> /   </dict> /   <dict> /    <key>name</key> /    <string>Алексей Серебряков</string> /   </dict> /   <dict> /    <key>name</key> /    <string>Олег Штефанко</string> /   </dict> /   <dict> /    <key>name</key> /    <string>Оскар Кучера</string> /   </dict> /   <dict> /    <key>name</key> /    <string>Сергей Газаров</string> /   </dict> /   <dict> /    <key>name</key> /    <string>Борис Токарев</string> /   </dict> /   <dict> /    <key>name</key> /    <string>Георгий Тесля-Герасимов</string> /   </dict> /   <dict> /    <key>name</key> /    <string>Анжелика Каширина</string> /   </dict> /   <dict> /    <key>name</key> /    <string>Сергей Бурунов</string> /   </dict> /  </array> /  <key>directors</key> /  <array> /   <dict> /    <key>name</key> /    <string>Вадим Шмелев</string> /   </dict> /  </array> /  <key>producers</key> /  <array> /   <dict> /    <key>name</key> /    <string>Сергей Грибков</string> /   </dict> /   <dict> /    <key>name</key> /    <string>Сергей Баженов</string> /   </dict> /   <dict> /    <key>name</key> /    <string>Марианна Балашова</string> /   </dict> /  </array> /  <key>screenwriters</key> /  <array> /   <dict> /    <key>name</key> /    <string>Денис Карышев</string> /   </dict> /   <dict> /    <key>name</key> /    <string>Вадим Шмелев</string> /   </dict> /  </array> / </dict> / </plist>
    Видео #1
    Идентификатор                            : 1
    Формат                                   : AVC
    Формат/Информация                        : Advanced Video Codec
    Профиль формата                          : High@L3.1
    Параметр CABAC формата                   : Нет
    Параметр ReFrames формата                : 3 кадра
    Идентификатор кодека                     : avc1
    Идентификатор кодека/Информация          : Advanced Video Coding
    Продолжительность                        : 1 ч. 50 м.
    Вид битрейта                             : Переменный
    Битрейт                                  : 3300 Кбит/сек
    Ширина                                   : 1280 пикселей
    Высота                                   : 544 пикселя
    Соотношение сторон                       : 2,35:1
    Режим частоты кадров                     : Переменный
    Частота кадров                           : 23,976 кадра/сек
    Минимальная частота кадров               : 23,810 кадра/сек
    Максимальная частота кадров              : 24,390 кадра/сек
    Цветовое пространство                    : YUV
    Субдискретизация насыщенности            : 4:2:0
    Битовая глубина                          : 8 бит
    Тип развёртки                            : Прогрессивная
    Бит/(Пиксели*Кадры)                      : 0.198
    Размер потока                            : 2,54 Гбайт (86%)
    Библиотека кодирования                   : x264 core 130 r2273 b3065e6
    Настройки программы                      : cabac=0 / ref=3 / deblock=1:-3:-3 / analyse=0x3:0x113 / me=umh / subme=9 / psy=1 / psy_rd=0.90:0.00 / mixed_ref=1 / me_range=32 / chroma_me=1 / trellis=0 / 8x8dct=1 / cqm=0 / deadzone=21,11 / fast_pskip=1 / chroma_qp_offset=-2 / threads=18 / lookahead_threads=1 / sliced_threads=0 / nr=0 / decimate=1 / interlaced=0 / bluray_compat=0 / constrained_intra=0 / bframes=8 / b_pyramid=0 / b_adapt=1 / b_bias=0 / direct=1 / weightb=0 / open_gop=0 / weightp=0 / keyint=240 / keyint_min=24 / scenecut=40 / intra_refresh=0 / rc_lookahead=40 / rc=2pass / mbtree=1 / bitrate=3300 / ratetol=1.0 / qcomp=0.60 / qpmin=4 / qpmax=69 / qpstep=4 / cplxblur=20.0 / qblur=0.5 / vbv_maxrate=9500 / vbv_bufsize=9500 / nal_hrd=none / ip_ratio=1.40 / aq=1:0.80
    Язык                                     : Russian
    Дата кодирования                         : UTC 2014-10-29 06:37:43
    Дата пометки                             : UTC 2014-10-29 06:39:11
    Основные цвета                           : BT.709-5, BT.1361, IEC 61966-2-4, SMPTE RP177
    Характеристики трансфера                 : BT.709-5, BT.1361
    Коэффициенты матрицы                     : BT.709-5, BT.1361, IEC 61966-2-4 709, SMPTE RP177
    Видео #2
    Идентификатор                            : 6
    Формат                                   : JPEG
    Идентификатор кодека                     : jpeg
    Продолжительность                        : 1 ч. 50 м.
    Вид битрейта                             : Переменный
    Битрейт                                  : 484 бит/сек
    Ширина                                   : 640 пикселей
    Высота                                   : 272 пикселя
    Соотношение сторон                       : 2,35:1
    Режим частоты кадров                     : Переменный
    Частота кадров                           : 0,002 кадр/сек
    Минимальная частота кадров               : 0,001 кадр/сек
    Максимальная частота кадров              : 0,007 кадр/сек
    Цветовое пространство                    : YUV
    Субдискретизация насыщенности            : 4:2:0
    Битовая глубина                          : 8 бит
    Метод сжатия                             : С потерями
    Бит/(Пиксели*Кадры)                      : 1.390
    Размер потока                            : 354 Кбайт (0%)
    Язык                                     : Russian
    Дата кодирования                         : UTC 2014-10-29 10:34:14
    Дата пометки                             : UTC 2014-10-29 10:34:14
    Аудио #1
    Идентификатор                            : 2
    Формат                                   : AAC
    Формат/Информация                        : Advanced Audio Codec
    Профиль формата                          : LC
    Идентификатор кодека                     : 40
    Продолжительность                        : 1 ч. 50 м.
    Вид битрейта                             : Переменный
    Битрейт                                  : 165 Кбит/сек
    Максимальный битрейт                     : 247 Кбит/сек
    Каналы                                   : 2 канала
    Расположение каналов                     : Front: L R
    Частота                                  : 48,0 КГц
    Метод сжатия                             : С потерями
    Задержка видео                           : -7 с. 0 мс.
    Размер потока                            : 130 Мбайт (4%)
    Язык                                     : Russian
    Дата кодирования                         : UTC 2014-10-29 10:33:46
    Дата пометки                             : UTC 2014-10-29 10:34:04
    Аудио #2
    Идентификатор                            : 3
    Формат                                   : AC-3
    Формат/Информация                        : Audio Coding 3
    Расширение режима                        : CM (complete main)
    Параметр Endianness формата              : Big
    Идентификатор кодека                     : ac-3
    Продолжительность                        : 1 ч. 50 м.
    Вид битрейта                             : Постоянный
    Битрейт                                  : 384 Кбит/сек
    Каналы                                   : 6 каналов
    Расположение каналов                     : Front: L C R, Side: L R, LFE
    Частота                                  : 48,0 КГц
    Битовая глубина                          : 16 бит
    Метод сжатия                             : С потерями
    Задержка видео                           : -7 с. 0 мс.
    Размер потока                            : 302 Мбайт (10%)
    Язык                                     : Russian
    Дата кодирования                         : UTC 2014-10-29 10:33:46
    Дата пометки                             : UTC 2014-10-29 10:34:00
    Текст #1
    Идентификатор                            : 4
    Формат                                   : Timed text
    Режим смешивания                         : sbtl
    Идентификатор кодека                     : tx3g
    Продолжительность                        : 1 ч. 42 м.
    Вид битрейта                             : Переменный
    Битрейт                                  : 34 бит/сек
    Задержка видео                           : -7 с. 0 мс.
    Размер потока                            : 25,6 Кбайт (0%)
    Язык                                     : English
    Дата кодирования                         : UTC 2014-10-29 10:33:46
    Дата пометки                             : UTC 2014-10-29 10:33:46
    Текст #2
    Идентификатор                            : 5
    Формат                                   : Apple text
    Идентификатор кодека                     : text
    Продолжительность                        : 1 ч. 50 м.
    Вид битрейта                             : Переменный
    Битрейт                                  : 0 бит/сек
    Задержка видео                           : -7 с. 0 мс.
    Размер потока                            : 279 байт (0%)
    Язык                                     : English
    Дата кодирования                         : UTC 2014-10-29 10:34:04
    Дата пометки                             : UTC 2014-10-29 10:34:04
    Меню
    00:00:00.000                             : Chapter 1
    00:07:46.591                             : Chapter 2
    00:19:34.840                             : Chapter 3
    00:30:17.565                             : Chapter 4
    00:40:08.614                             : Chapter 5
    00:49:01.104                             : Chapter 6
    01:01:02.867                             : Chapter 7
    01:09:20.281                             : Chapter 8
    01:19:58.835                             : Chapter 9
    01:29:47.256                             : Chapter 10
    01:37:58.622                             : Chapter 11
    01:40:21.015                             : Chapter 12

    MediaInfo 1080p Release

    Общее
    Полное имя                               : Z:\ATV\Kod apokalipsisa\Kod apokalipsisa (1080p HD).m4v
    Формат                                   : MPEG-4
    Идентификатор кодека                     : M4V
    Размер файла                             : 7,19 Гбайт
    Продолжительность                        : 1 ч. 50 м.
    Режим общего битрейта                    : Переменный
    Общий поток                              : 9351 Кбит/сек
    Название фильма                          : Код апокалипсиса
    Исполнитель                              : Вадим Шмелев
    Жанр                                     : боевик, приключения
    Дата записи                              : UTC 2007-10-04 08:00:00
    Дата кодирования                         : UTC 2014-10-29 06:30:03
    Дата пометки                             : UTC 2014-10-29 11:08:40
    Обложка                                  : Yes
    sonm                                     : Код апокалипсиса
    desc                                     : Террорист N1 Джаффад Бен Зайиди похитил с затонувшей американской подлодки четыре ядерные боеголовки, спрятав их в крупнейших мегаполисах мира. Заряд активируется одиннадцатизначным кодом, узнать который можно лишь собрав воедино цифры, известные трем приближенным Джаффада, которых никто не видел в лицо...
    ldes                                     : Террорист N1 Джаффад Бен Зайиди похитил с затонувшей американской подлодки четыре ядерные боеголовки, спрятав их в крупнейших мегаполисах мира. Заряд активируется одиннадцатизначным кодом, узнать который можно лишь собрав воедино цифры, известные трем приближенным Джаффада, которых никто не видел в лицо. / Но террориста убивают при странных обстоятельствах, а его бывший напарник по прозвищу Палач намерен привести бомбы в действие. По его следу пускаются объединившие усилия ФСБ и ЦРУ, чей агент Мари несколько лет назад внедрилась в группировку Джаффада. Теперь под новой легендой ей предстоит спасти мир.
    hdvd                                     : 2
    stik                                     : 9
    rtng                                     : 0
    cnID                                     : 257772
    xid                                      : Apple:vendor_id:KP-2007-257772
    iTunMOVI                                 : <?xml version="1.0" encoding="UTF-8"?> / <!DOCTYPE plist PUBLIC "-//Apple//DTD PLIST 1.0//EN" "http://anonym.to/?http://www.apple.com/DTDs/PropertyList-1.0.dtd"> / <plist version="1.0"> / <dict> /  <key>cast</key> /  <array> /   <dict> /    <key>name</key> /    <string>Анастасия Заворотнюк</string> /   </dict> /   <dict> /    <key>name</key> /    <string>Венсан Перес</string> /   </dict> /   <dict> /    <key>name</key> /    <string>Владимир Меньшов</string> /   </dict> /   <dict> /    <key>name</key> /    <string>Алексей Серебряков</string> /   </dict> /   <dict> /    <key>name</key> /    <string>Олег Штефанко</string> /   </dict> /   <dict> /    <key>name</key> /    <string>Оскар Кучера</string> /   </dict> /   <dict> /    <key>name</key> /    <string>Сергей Газаров</string> /   </dict> /   <dict> /    <key>name</key> /    <string>Борис Токарев</string> /   </dict> /   <dict> /    <key>name</key> /    <string>Георгий Тесля-Герасимов</string> /   </dict> /   <dict> /    <key>name</key> /    <string>Анжелика Каширина</string> /   </dict> /   <dict> /    <key>name</key> /    <string>Сергей Бурунов</string> /   </dict> /  </array> /  <key>directors</key> /  <array> /   <dict> /    <key>name</key> /    <string>Вадим Шмелев</string> /   </dict> /  </array> /  <key>producers</key> /  <array> /   <dict> /    <key>name</key> /    <string>Сергей Грибков</string> /   </dict> /   <dict> /    <key>name</key> /    <string>Сергей Баженов</string> /   </dict> /   <dict> /    <key>name</key> /    <string>Марианна Балашова</string> /   </dict> /  </array> /  <key>screenwriters</key> /  <array> /   <dict> /    <key>name</key> /    <string>Денис Карышев</string> /   </dict> /   <dict> /    <key>name</key> /    <string>Вадим Шмелев</string> /   </dict> /  </array> / </dict> / </plist>
    Видео #1
    Идентификатор                            : 1
    Формат                                   : AVC
    Формат/Информация                        : Advanced Video Codec
    Профиль формата                          : High@L4.0
    Параметр CABAC формата                   : Да
    Параметр ReFrames формата                : 4 кадра
    Идентификатор кодека                     : avc1
    Идентификатор кодека/Информация          : Advanced Video Coding
    Продолжительность                        : 1 ч. 50 м.
    Вид битрейта                             : Переменный
    Битрейт                                  : 8800 Кбит/сек
    Ширина                                   : 1920 пикселей
    Высота                                   : 816 пикселей
    Соотношение сторон                       : 2,35:1
    Режим частоты кадров                     : Переменный
    Частота кадров                           : 23,976 кадра/сек
    Минимальная частота кадров               : 23,810 кадра/сек
    Максимальная частота кадров              : 24,390 кадра/сек
    Цветовое пространство                    : YUV
    Субдискретизация насыщенности            : 4:2:0
    Битовая глубина                          : 8 бит
    Тип развёртки                            : Прогрессивная
    Бит/(Пиксели*Кадры)                      : 0.234
    Размер потока                            : 6,76 Гбайт (94%)
    Библиотека кодирования                   : x264 core 130 r2273 b3065e6
    Настройки программы                      : cabac=1 / ref=4 / deblock=1:-3:-3 / analyse=0x3:0x113 / me=umh / subme=9 / psy=1 / psy_rd=0.90:0.00 / mixed_ref=1 / me_range=32 / chroma_me=1 / trellis=2 / 8x8dct=1 / cqm=0 / deadzone=21,11 / fast_pskip=1 / chroma_qp_offset=-2 / threads=18 / lookahead_threads=1 / sliced_threads=0 / nr=0 / decimate=1 / interlaced=0 / bluray_compat=0 / constrained_intra=0 / bframes=8 / b_pyramid=2 / b_adapt=1 / b_bias=0 / direct=1 / weightb=1 / open_gop=0 / weightp=2 / keyint=240 / keyint_min=24 / scenecut=40 / intra_refresh=0 / rc_lookahead=40 / rc=2pass / mbtree=1 / bitrate=8800 / ratetol=1.0 / qcomp=0.60 / qpmin=0 / qpmax=69 / qpstep=4 / cplxblur=20.0 / qblur=0.5 / vbv_maxrate=25000 / vbv_bufsize=25000 / nal_hrd=none / ip_ratio=1.40 / aq=1:0.80
    Язык                                     : Russian
    Дата кодирования                         : UTC 2014-10-29 06:30:03
    Дата пометки                             : UTC 2014-10-29 06:33:41
    Основные цвета                           : BT.709-5, BT.1361, IEC 61966-2-4, SMPTE RP177
    Характеристики трансфера                 : BT.709-5, BT.1361
    Коэффициенты матрицы                     : BT.709-5, BT.1361, IEC 61966-2-4 709, SMPTE RP177
    Видео #2
    Идентификатор                            : 6
    Формат                                   : JPEG
    Идентификатор кодека                     : jpeg
    Продолжительность                        : 1 ч. 50 м.
    Вид битрейта                             : Переменный
    Битрейт                                  : 487 бит/сек
    Ширина                                   : 640 пикселей
    Высота                                   : 272 пикселя
    Соотношение сторон                       : 2,35:1
    Режим частоты кадров                     : Переменный
    Частота кадров                           : 0,002 кадр/сек
    Минимальная частота кадров               : 0,001 кадр/сек
    Максимальная частота кадров              : 0,007 кадр/сек
    Цветовое пространство                    : YUV
    Субдискретизация насыщенности            : 4:2:0
    Битовая глубина                          : 8 бит
    Метод сжатия                             : С потерями
    Бит/(Пиксели*Кадры)                      : 1.399
    Размер потока                            : 356 Кбайт (0%)
    Язык                                     : Russian
    Дата кодирования                         : UTC 2014-10-29 11:05:47
    Дата пометки                             : UTC 2014-10-29 11:05:47
    Аудио #1
    Идентификатор                            : 2
    Формат                                   : AAC
    Формат/Информация                        : Advanced Audio Codec
    Профиль формата                          : LC
    Идентификатор кодека                     : 40
    Продолжительность                        : 1 ч. 50 м.
    Вид битрейта                             : Переменный
    Битрейт                                  : 165 Кбит/сек
    Максимальный битрейт                     : 247 Кбит/сек
    Каналы                                   : 2 канала
    Расположение каналов                     : Front: L R
    Частота                                  : 48,0 КГц
    Метод сжатия                             : С потерями
    Задержка видео                           : -14 с.
    Размер потока                            : 130 Мбайт (2%)
    Язык                                     : Russian
    Дата кодирования                         : UTC 2014-10-29 11:05:13
    Дата пометки                             : UTC 2014-10-29 11:05:38
    Аудио #2
    Идентификатор                            : 3
    Формат                                   : AC-3
    Формат/Информация                        : Audio Coding 3
    Расширение режима                        : CM (complete main)
    Параметр Endianness формата              : Big
    Идентификатор кодека                     : ac-3
    Продолжительность                        : 1 ч. 50 м.
    Вид битрейта                             : Постоянный
    Битрейт                                  : 384 Кбит/сек
    Каналы                                   : 6 каналов
    Расположение каналов                     : Front: L C R, Side: L R, LFE
    Частота                                  : 48,0 КГц
    Битовая глубина                          : 16 бит
    Метод сжатия                             : С потерями
    Задержка видео                           : -14 с.
    Размер потока                            : 302 Мбайт (4%)
    Язык                                     : Russian
    Дата кодирования                         : UTC 2014-10-29 11:05:13
    Дата пометки                             : UTC 2014-10-29 11:05:30
    Текст #1
    Идентификатор                            : 4
    Формат                                   : Timed text
    Режим смешивания                         : sbtl
    Идентификатор кодека                     : tx3g
    Продолжительность                        : 1 ч. 42 м.
    Вид битрейта                             : Переменный
    Битрейт                                  : 34 бит/сек
    Задержка видео                           : -14 с.
    Размер потока                            : 25,6 Кбайт (0%)
    Язык                                     : English
    Дата кодирования                         : UTC 2014-10-29 11:05:13
    Дата пометки                             : UTC 2014-10-29 11:05:13
    Текст #2
    Идентификатор                            : 5
    Формат                                   : Apple text
    Идентификатор кодека                     : text
    Продолжительность                        : 1 ч. 50 м.
    Вид битрейта                             : Переменный
    Битрейт                                  : 0 бит/сек
    Задержка видео                           : -14 с.
    Размер потока                            : 279 байт (0%)
    Язык                                     : English
    Дата кодирования                         : UTC 2014-10-29 11:05:38
    Дата пометки                             : UTC 2014-10-29 11:05:38
    Меню
    00:00:00.000                             : Chapter 1
    00:07:46.591                             : Chapter 2
    00:19:34.840                             : Chapter 3
    00:30:17.565                             : Chapter 4
    00:40:08.614                             : Chapter 5
    00:49:01.104                             : Chapter 6
    01:01:02.867                             : Chapter 7
    01:09:20.281                             : Chapter 8
    01:19:58.835                             : Chapter 9
    01:29:47.256                             : Chapter 10
    01:37:58.622                             : Chapter 11
    01:40:21.015                             : Chapter 12

    x264 лог 720p Release

    x264 [info]: frame I:1935  Avg QP:15.53  size: 79998  PSNR Mean Y:48.30 U:51.84 V:52.64 Avg:49.21 Global:48.71
    x264 [info]: frame P:86917 Avg QP:18.01  size: 24156  PSNR Mean Y:45.85 U:49.84 V:50.67 Avg:46.83 Global:46.26
    x264 [info]: frame B:69423 Avg QP:20.40  size:  6740  PSNR Mean Y:45.04 U:49.89 V:50.49 Avg:46.10 Global:45.41
    x264 [info]: consecutive B-frames: 29.7% 34.7%  9.8% 14.1%  9.9%  0.9%  0.2%  0.0%  0.6%
    x264 [info]: mb I  I16..4: 10.0% 57.9% 32.1%
    x264 [info]: mb P  I16..4:  1.2%  3.5%  1.6%  P16..4: 43.7% 23.6% 10.3%  0.0%  0.0%    skip:16.1%
    x264 [info]: mb B  I16..4:  0.1%  0.2%  0.1%  B16..8: 46.6%  9.3%  1.4%  direct: 3.2%  skip:39.2%  L0:41.3% L1:50.2% BI: 8.5%
    x264 [info]: 8x8 transform intra:56.0% inter:47.3%
    x264 [info]: coded y,uvDC,uvAC intra: 80.7% 69.5% 44.6% inter: 21.4% 16.1% 3.0%
    x264 [info]: i16 v,h,dc,p: 52% 14%  5% 29%
    x264 [info]: i8 v,h,dc,ddl,ddr,vr,hd,vl,hu:  9% 10%  4% 11% 15% 14% 14% 11% 11%
    x264 [info]: i4 v,h,dc,ddl,ddr,vr,hd,vl,hu: 10% 11%  3% 11% 16% 14% 14% 10%  9%
    x264 [info]: i8c dc,h,v,p: 52% 18% 19% 10%
    x264 [info]: ref P L0: 67.3% 18.9% 13.8%
    x264 [info]: ref B L0: 76.0% 24.0%
    x264 [info]: SSIM Mean Y:0.9807917 (17.165db)
    x264 [info]: PSNR Mean Y:45.522 U:49.888 V:50.613 Avg:46.536 Global:45.889 kb/s:3299.10

    x264 лог 1080p Release

    x264 [info]: frame I:2190  Avg QP:15.33  size:144764  PSNR Mean Y:49.02 U:52.03 V:52.99 Avg:49.84 Global:49.40
    x264 [info]: frame P:101196 Avg QP:17.91  size: 55477  PSNR Mean Y:46.05 U:49.74 V:50.84 Avg:47.01 Global:46.57
    x264 [info]: frame B:54889 Avg QP:19.82  size: 24165  PSNR Mean Y:45.48 U:50.24 V:50.96 Avg:46.54 Global:45.78
    x264 [info]: consecutive B-frames: 41.7% 35.2%  7.9%  9.0%  5.1%  0.4%  0.2%  0.0%  0.6%
    x264 [info]: mb I  I16..4: 13.4% 71.5% 15.1%
    x264 [info]: mb P  I16..4:  1.1%  4.2%  0.4%  P16..4: 46.9% 25.3% 11.6%  0.0%  0.0%    skip:10.5%
    x264 [info]: mb B  I16..4:  0.1%  0.3%  0.0%  B16..8: 50.1%  9.3%  2.0%  direct: 4.9%  skip:33.3%  L0:45.3% L1:46.1% BI: 8.6%
    x264 [info]: 8x8 transform intra:73.1% inter:53.7%
    x264 [info]: coded y,uvDC,uvAC intra: 83.9% 74.1% 46.5% inter: 40.9% 34.6% 5.9%
    x264 [info]: i16 v,h,dc,p: 49% 10% 17% 24%
    x264 [info]: i8 v,h,dc,ddl,ddr,vr,hd,vl,hu: 10% 10%  7% 10% 14% 13% 13% 11% 13%
    x264 [info]: i4 v,h,dc,ddl,ddr,vr,hd,vl,hu: 12% 11%  8%  9% 13% 12% 13% 10% 13%
    x264 [info]: i8c dc,h,v,p: 46% 23% 18% 12%
    x264 [info]: Weighted P-Frames: Y:2.2% UV:0.8%
    x264 [info]: ref P L0: 54.4% 10.0% 20.6% 10.0%  5.0%  0.1%
    x264 [info]: ref B L0: 76.0% 22.1%  1.8%
    x264 [info]: ref B L1: 93.7%  6.3%
    x264 [info]: SSIM Mean Y:0.9794140 (16.864db)
    x264 [info]: PSNR Mean Y:45.897 U:49.947 V:50.913 Avg:46.885 Global:46.304 kb/s:8795.07

    Скриншоты 720p Release


    Скриншоты 1080p Release


    -

    Релиз подготовлен для просмотра на Apple TV, iPad, iPhone, iPod Touch.
    Для просмотра данного релиза на компьютере с ОС Windows рекомендуется использовать VLC media player
    --
    Скачать .torrent

    Скачать торрент-файл бесплатно и на максимальной скорости!

    Как скачивать? · Что такое торрент? · Рейтинг и ограничения

    !ВНИМАНИЕ!
    Сайт не распространяет и не хранит электронные версии произведений, а занимается лишь лишь предоставлением доступа к создаваемому пользователями каталогу ссылок на торрент-файлы, которые содержат только списки хеш-сумм, убедительная просьба с жалобами обращаться напрямую к пользователю. Файлы для обмена на трекере предоставлены пользователями сайта, и администрация не несёт ответственности за их содержание. Просьба не заливать файлы, защищенные авторскими правами, а также файлы нелегального содержания!


  • _________________
    [Профиль] [ЛС]
    Показать сообщения:    
    Ответить на тему

    Текущее время: Сегодня, в 09:11

    Часовой пояс: GMT + 2



    Вы не можете начинать темы
    Вы не можете отвечать на сообщения
    Вы не можете редактировать свои сообщения
    Вы не можете удалять свои сообщения
    Вы не можете голосовать в опросах
    Вы не можете прикреплять файлы к сообщениям
    Вы не можете скачивать файлы