BitTorrentTracker PerecTracker.org
BitTorrentTracker PerecTracker.org
    
Регистрация  ·  Вход
 
 · 
Забыли пароль?

  • 9 рота (Фёдор Бондарчук) [2005, боевик, драма, военный, BDRip, HD (1080p, 720p)] Original, DUB (fre, ger) + SUB (rus, eng, ger, fre, spa)

    Ответить на тему
     
    Автор Сообщение

    Flirldrerve

    Создавать темы 27-Окт-2015 05:21

           

    [Цитировать]

    9 рота
    "Они хотели, чтобы их любили..."
    6.881 / 10
    -Год выпуска: 2005
    Страна: Россия, Украина, Финляндия
    Жанр: боевик, драма, военный, история
    Продолжительность: 139 мин.
    Перевод:
    Не требуется
    Режиссёр: Фёдор Бондарчук
    Сценарий: Юрий Коротков
    Продюсер: Фёдор Бондарчук, Андрей Хватков, Илкка Матила
    В ролях: Фёдор Бондарчук, Алексей Чадов, Иван Кокорин, Артем Михалков, Константин Крюков, Артур Смольянинов, Михаил Пореченков, Ирина Рахманова, Алексей Серебряков, Михаил Ефремов
    Бюджет: $6 700 000
    Сборы в России: $25 555 809
    Мировая премьера: 29 сентября 2005
    Премьера (РФ): 29 сентября 2005, Гемини
    Релиз на DVD: 1 июня 2010, Русское счастье
    Описание: СССР. Действие происходит в 1988 и 1989 годах, за несколько месяцев до полного вывода советских войск из Афганистана. Семеро призывников, после нескольких месяцев адской подготовки в "учебке" под командованием беспощадного старшины, попадают в горнило афганской кампании.
    Группа десантников, бойцами которой стали наши герои, получает задание командования - занять высоту и держать ее до прохождения колонны...-Качество исходника: Blu-Ray 1080p
    Качество: BDRip
    Тип: 720p 1080p
    Контейнер: m4v
    Видео: 1280x514 at 23.976 fps, MPEG-4 AVC, ~7000 kbps avg
    Видео: 1920x772 at 23.976 fps, MPEG-4 AVC, ~16300 kbps avg
    Аудио#1: Russian: 48 kHz, ААС, 2/0 (L,R), ~160.00 kbps avg
    Аудио#2: German: 48 kHz, ААС, 2/0 (L,R), ~160.00 kbps avg|Профессиональный (дублированный)
    Аудио#3: French: 48 kHz, ААС, 2/0 (L,R), ~160.00 kbps avg|Профессиональный (дублированный)
    Аудио#4: Russian: 48 kHz, AC3, 3/2 (L,C,R,l,r) + LFE ch, ~640 kbps avg-Субтитры №1: Russian: |Полные
    Субтитры №2: English: |Полные
    Субтитры №3: German: |Полные
    Субтитры №4: French: |Полные
    Субтитры №5: Spanish: |Полные-
    -

    Знаете ли Вы, что...

  • В основу сценария Юрия Короткова легли реальные события. 9 рота 345-го отдельного гвардейского парашютно-десантного полка была чуть ли не самым легендарным подразделением Советской Армии в Афганистане.
  • Съёмки фильма проходили в Крыму (Украина), Москве, Узбекистане (в местах бывшего расположения реальных афганских «учебок») и в Финляндии.
  • На местах поддержку съемочной группе оказывали Президенты Украины, Узбекистана, министры обороны этих стран, а также губернатор Подмосковья генерал Громов, бывший командующим Южной группой войск СССР в момент вывода Советского контингента из непокорившейся республики.
  • Бюджет картины составил 9 млн. долларов. Самая дорогая сцена — взрыв самолета. Она готовилась и снималась 17 дней и стоила 450 тысяч долларов.
  • Киноэкспедиция длилась 150 календарных дней. Съемочных дней (Москва и Крым) — 111. Съемки фильма проходили с 25 мая по 12 октября 2004 года.
  • В съемках было задействовано 18 объектов в Крыму, Узбекистане и Москве. География крымских объектов: Ангарский перевал, Перевальное (Чатыр-Даг), Эски-Кермен, Саки, Новофедоровка, Бекетово, скалы Роу, Кучук-Янышар, Южное, Биюк-Янышар, Старый Крым, Агармыш, Балаклава (карьер), Мыс Чауда. География съемок в Узбекистане: Чарвак, Бричмулла, Большой Чимган, Чирчикский аэродром, Чаткал.
  • Общее количество времени, проведенного продюсером Еленой Яцурой в перелетах — 480 часов. За время съемок на Украине группа проехала около 10 тысяч километров по крымским дорогам.
  • Общее количество человек, которое принимало участие в съемках: группа — 150 человек, массовка — 2000 человек. Всего за съемочный период членами съемочной группы было выпито 25 тысяч литров чая и кофе и съедено 13 500 кг завтраков и обедов. «Моджахеды» были одеты в натуральную афганскую одежду, которую закупали в Афганистане. Всего было закуплено 300 костюмов. Для съемок в Крым пришло 4 вагона с реквизитом.
  • Однажды ассистент по реквизиту нашел в Симферополе щенка. Собаку назвали Миной, она стала любимицей съемочной группы и даже сыграла одну из ролей. Теперь Мина выросла, живет в Москве и уже утверждена на следующую роль — в фильме Аллы Суриковой.
  • В сцене со стариком-афганцем снималась ослица, дебют которой состоялся в «Кавказской пленнице». Представители группы в поисках осла пришли в Ялтинский зоопарк и объяснили, что нужно животное, которое не боялось бы камеры, громких звуков и всего того, что связано со съемками в кино. «Лучше нее вам не найти, — сказал дрессировщик — в «Кавказской пленнице» она была молодая, а сейчас — опытная актриса. Берите, не пожалеете». «9 рота» не пожалела. Ослица не боялась ничего и прекрасно справилась с ролью.
  • Всего в крымских съемках принимали участие около полутора тысяч военнослужащих военно-морских сил, войск береговой обороны, сухопутных войск, армейской авиации сухопутных войск, военно-воздушных сил Украины.
  • Для съемок художникам пришлось перекрашивать ярко-зеленую украинскую технику в «пустынные» цвета и цвет хаки, а учебные городки — из желто-голубых — в защитные. Для этого группа скупила практически всю акриловую краску в Симферополе. Всего было израсходовано более 1 000 кг краски — ведь потом технике и домикам нужно было придать первозданный вид. Было создано около пятидесяти больших и маленьких «советских» плакатов.
  • Однажды в Бекетово снимали сцены с вертолетами. Вертолеты должны были залетать со стороны Фороса. А там, в резиденции президента Кучмы, как раз проходила трехсторонняя встреча на высшем уровне. Охрана президентов Кучмы и Назарбаева заметила вертушки с красными звездами на бортах, которые очень низко летели над местом встречи глав государств. Очевидцы говорят, что если бы в тот момент президент России не уехал с Фороса, то его охрана была бы расторопнее, и неизвестно, чем бы все закончилось для «9 роты». А так — Федора Бондарчука на следующий день вызвали «на ковер», и с ним разговаривали суровые мужчины в штатском.
  • Однажды во время съемок в Старокрымском карьере два вертолета МИ-24 делали круг над горами, чтобы снять еще один дубль. В это время им навстречу вылетел… дельтапланерист. С трудом удалось избежать столкновения. После этого случая Федор Бондарчук отправил людей по всем окружающим горам, чтобы найти место, откуда злополучный дельтаплан совершил свой полет. Стартовая площадка так и не была найдена. Зато дельтапланерист потом еще полгода с гордостью рассказывал всем историю про то, как он участвовал в съемках «9 роты».
  • Самая сложная сцена фильма — взрыв афганского кишлака. Кишлак строила бригада с ялтинской студии. Строительство продолжалось 4 месяца. Настоящий кишлак был создан классическим восточным методом — из глины — и занимал территорию в 2 гектара. Пока дело не дошло до съемок, в «афганский городок» совершали паломничество туристы — ведь объект находился совсем рядом с Коктебелем. В день, когда был назначен взрыв, и все было готово (9 тонн взрывчатки, 7 километров проводов), небо покрылось облаками, и съемку пришлось перенести. «Заряженный» кишлак оставили ночевать под усиленной охраной. Назавтра специальный человек был выставлен в наряд за гору и должен был рассказывать о погоде — когда меж облаков появился большой кусок чистого неба, взрыв был произведен, и любовно созданный кишлак взлетел на воздух.
  • Однажды в Старокрымском карьере, где строился объект «кишлак», из-под земли показался хвост минометной мины. Об этом узнал заместитель командира Отдельной бригады морской пехоты Украинских ВМФ Михаил Васильевич Лавриков. Объект взяли под охрану, попытались вызвать саперов, но саперы были на выезде. Делать нечего — Лавриков привязал к хвосту веревку, спрятался за холмик и рванул. Оказалось, что это только хвост, а сама мина, которая пролежала там со времен Великой Отечественной, сгнила.
  • Сцена главного боя снималась в местечке Кучук-Янышар. Для строительства укрепрайона «Последняя позиция» было привезено 12 КРАЗов облицовочного камня и 30 КРАЗов бута из Старокрымского карьера. Для пиротехнических закладок использовали торф и цемент — чтобы было много пыли. Трехтонные глыбы привозили из того же карьера и устанавливали кранами.
  • Когда снимали сцену «Обстрел позиции», случился пожар. Загорелись деревянные перекрытия землянки и маскировочная сетка. Огонь распространялся так стремительно, что пришлось вызывать пожарных. Они примчались и говорят: «Уже весь Крым знает, что на «9 роте» — пожар!»
  • Всего было отснято около 70 000 метров пленки. Оператор-постановщик фильма Максим Осадчий вместе с цветоустановщицей Божедаркой Масленниковой провели более пятисот часов, делая цветокоррекцию и добиваясь именно таких оттенков, которые были задуманы при съемках. В результате, афганские сцены получились более сепийными, рыжими, а учебка — более холодной, зеленоватой.
  • Звукорежиссер Кирилл Василенко специально ездил за шумами на Украину. Дополнительно было записано порядка 20 часов шумов — стрелковое оружие, самолеты, вертолеты, танки, звуки казармы, БТРы, минометы, крупноколиберное оружие, ГРАДы. Над монтажом звука трудились несколько бригад монтажеров. В Москве три человека работали над атмосферными шумами и диалогами. В Питере расставляли все шумовые спецэффекты (выстрелы, взрывы и т. д.). А в Австралии специальный человек занимался рикошетами. Общую координацию и сбор всего материала осуществляли в Лондоне. Передача звуков и изображений между странами и континентами осуществлялась через Интернет.
  • «9 рота» — единственный за последние десятилетия и второй за всю историю кино российский фильм, работа над звуком для которого проходила на британской студии «Pinewood Shepperton Studios». Первым был «Ватерлоо» Сергея Бондарчука (1970). Среди картин, создававшихся при непосредственном участии «Pinewood» — все фильмы бондианы, фильм Ридли Скотта «Падение Черного ястреба», последняя картина Тима Бёртона «Чарли и шоколадная фабрика» и многие-многие другие.
  • Роль прапорщика Погребняка («Хохла») могли сыграть Николай Фоменко и Владимир Машков, но в итоге ни тот, ни другой не смогли принять участия в съемках. В итоге Федору Бондарчуку пришлось примерить форму «прапора» на себя.
  • Стоит отметить, что многие факты в фильме были искажены — события в фильме разворачиваются в 1989 году, а не в 1988, как это было на самом деле. Также, потери советской армии в этой битве по фильму составляют почти 100 %, в то время, как на самом деле погибло 6 из 39 человек. Серьёзнейшим искажением фактов является то, что в фильме десантники оказались «забыты» на высоте и приняли бой в одиночку, без всяческого командования и поддержки. Еще одно искажение — бой проходил в высокогорье, в снегах, а не в песках, как в фильме.
  • По прибытии в часть, один из героев получает пулемёт Калашникова с погнутым стволом. При том, что ствол у этого пулемёта легко заменяется (в случае перегрева или повреждения).
  • Ошибки в фильме

  • БТР и БМП имеют современную камуфляжную раскраску (притом украинскую). В Афганистане техника как правило была однотонная зеленая.
  • В сцене со сбитым Ан-12 после взрыва самолёта винты мгновенно перестают вращаться
  • Транспортные самолёты всегда сопровождались при взлёте парой вертолётов, отстреливающих тепловые ловушки.
  • из книги «3500 кинорецензий»


    Военная драма (Сергей Кудрявцев 6.5/10)
    Возможно, если бы сами создатели этого фильма не заявляли о своих весьма амбициозных претензиях, именуя собственный проект не иначе как «Апокалипсис вчера» (то есть с прозрачным намёком на соперничество с «Апокалипсисом сегодня») и как более мощную по силе воздействия ленту, нежели «Цельнометаллическая оболочка», то и спрос бы был меньше. Для полноправного режиссёрского дебюта Фёдора Бондарчука (музыкальный бенефис Людмилы Гурченко «Люблю» всё-таки не в счёт) — вполне стоящее кино, в том числе и в буквальном смысле слова, поскольку в итоге было потрачено свыше 10 млн. долларов. И, кстати, это видно на экране, в отличие от ряда других дорогих (по российским меркам) картин. Взрыв самолёта с возвращающимися из Афганистана десантниками и боевые сцены на дороге, в кишлаке, а особенно — на высоте, которую из последних сил удерживают немногочисленные советские солдаты, действительно впечатляют в качестве эффектного зрелища.
    Как военная драма, «9 рота» сделана практически безошибочно, пусть и не открывает новых горизонтов в этом жанре на пространстве мирового кинематографа, да и в неизбежном сравнении, допустим, с фильмом «Они сражались за родину» Сергея Бондарчука (к тому же сын посвятил отцу собственную работу) представитель младшего поколения, безусловно, проигрывает по уровню художественного обобщения ужасов войны. Но и по глубине и неоднозначности характеров лента Фёдора Бондарчука, между прочим, играющего ещё и роль крутого прапорщика по прозвищу Хохол, значительно уступает экранизации незаконченного шолоховского романа. И молодые ребята из своеобразной «великолепной семёрки», которые были призваны в 1988 году в Красноярске на службу и потом попали в Афганистан, и офицеры разных званий — от лейтенанта до полковника, встречающиеся на их пути ещё в «учебке» в Узбекистане или уже в боевых условиях, конечно, запоминаются, поскольку каждый представлен по-особому. Но, пожалуй, лишь прапорщик Дыгало в исполнении Михаила Пореченкова, жёстко и даже исступлённо натаскивающий юнцов, чтобы они смогли позже выстоять и уцелеть на войне, оказывается самым убедительным героем фильма, которому веришь беспрекословно и навсегда.
    Однако и тут случился досадный прокол со стороны режиссёра, время от времени допускающего совершенно необязательные, более того — банальные решения, что сразу снижает впечатление от рассказываемой истории. Прапорщик Дыгало, который напрасно забрасывает рапортами начальство, прося вернуть его в Афган, и молча страдает по этому поводу среди красивого поля с красными маками — это же что-то из разряда «видеоклиповой эстетики», от чего Бондарчук-младший, видимо, никак не может избавиться. Вот и в приукрашенном желании выдать мелкую гарнизонную проблядушку по прозвищу Белоснежка чуть ли не за богиню Венеру, достойную кисти Боттичелли, есть нечто из привычного арсенала шоу-бизнеса и всевозможных «фабрик звёзд», где тиражирование сомнительных кумиров женского пола поставлено на поток.
    В конечном счёте, не подобная ли опасная подмена происходит и в финале «9 роты», когда выясняется, что «мы победили в этой войне», хотя в тот самый момент уже был отдан предательский приказ о выводе войск из Афганистана. Если в реальности так и произошло, что о солдатах, сражавшихся за конкретную высоту, позабыли начальники, которые спешили убраться восвояси с чужой территории, где десятый год бесполезно пытались покорить душманов, фактически являясь для них таковыми, а именно — врагами, то в кино это поневоле приобретает характер фальшивого обобщения. Получается — «они сражались за роту». И с периода второй мировой войны наши войска только и делают, что всюду проигрывают, зато отдельные герои побеждают наперекор всему. Люди-то на самом деле хорошие, и страна — тоже ничего, но вот с властями нам никогда не везло!
    2005

    -

    iTunes Meta Tags for country ru

    Name: 9 рота
    Artist: Фeдор Бондарчук
    Genre: Russian
    Release Date: 2005-09-29T08:00:00Z
    Description: СССР. Действие происходит в 1988 и 1989 годах, за несколько месяцев до полного вывода советских войск из Афганистана. Группа десантников, бойцами которой стали наши герои, получает задание командования - занять высоту и держать ее до прохождения колонны...
    Long Description: СССР. Действие происходит в 1988 и 1989 годах, за несколько месяцев до полного вывода советских войск из Афганистана. Семеро призывников, после нескольких месяцев адской подготовки в "учебке" под командованием беспощадного старшины, попадают в горнило афганской кампании.
    Группа десантников, бойцами которой стали наши герои, получает задание командования - занять высоту и держать ее до прохождения колонны...
    Rating: 16+
    Studio: Art Pictures Group
    Cast: Фёдор Бондарчук, Алексей Чадов, Иван Кокорин, Артем Михалков, Константин Крюков, Артур Смольянинов, Михаил Пореченков, Ирина Рахманова, Алексей Серебряков, Михаил Ефремов
    Director: Фёдор Бондарчук
    Producers: Фёдор Бондарчук, Андрей Хватков, Илкка Матила
    Screenwriters: Юрий Коротков
    contentID: 791802918
    XID: Apple:vendor_id:2005-84674
    Sort Name: 9 рота

    MediaInfo 720p Release

    Общее
    Полное имя                               : Z:\ATV\9 Rota\9 Rota (HD).m4v
    Формат                                   : MPEG-4
    Идентификатор кодека                     : M4V
    Размер файла                             : 7,90 Гбайт
    Продолжительность                        : 2 ч. 19 м.
    Режим общего битрейта                    : Переменный
    Общий поток                              : 8126 Кбит/сек
    Название фильма                          : 9 рота
    Исполнитель                              : Фeдор Бондарчук
    Жанр                                     : Drama
    Дата записи                              : UTC 2005-09-29 08:00:00
    Дата кодирования                         : UTC 2014-11-01 06:27:07
    Дата пометки                             : UTC 2014-11-01 07:39:14
    Обложка                                  : Yes
    sonm                                     : 9 рота
    desc                                     : СССР. Действие происходит в 1988 и 1989 годах, за несколько месяцев до полного вывода советских войск из Афганистана. Группа десантников, бойцами которой стали наши герои, получает задание командования - занять высоту и держать ее до прохождения колонны...
    ldes                                     : СССР. Действие происходит в 1988 и 1989 годах, за несколько месяцев до полного вывода советских войск из Афганистана. Семеро призывников, после нескольких месяцев адской подготовки в "учебке" под командованием беспощадного старшины, попадают в горнило афганской кампании. / Группа десантников, бойцами которой стали наши герои, получает задание командования - занять высоту и держать ее до прохождения колонны...
    hdvd                                     : 1
    stik                                     : 9
    rtng                                     : 0
    cnID                                     : 791802918
    xid                                      : Apple:vendor_id:2005-84674
    iTunEXTC                                 : ru-movie|16+|375|
    iTunMOVI                                 : <?xml version="1.0" encoding="UTF-8"?> / <!DOCTYPE plist PUBLIC "-//Apple//DTD PLIST 1.0//EN" "http://anonym.to/?http://www.apple.com/DTDs/PropertyList-1.0.dtd"> / <plist version="1.0"> / <dict> /  <key>cast</key> /  <array> /   <dict> /    <key>name</key> /    <string>Фёдор Бондарчук</string> /   </dict> /   <dict> /    <key>name</key> /    <string>Алексей Чадов</string> /   </dict> /   <dict> /    <key>name</key> /    <string>Иван Кокорин</string> /   </dict> /   <dict> /    <key>name</key> /    <string>Артем Михалков</string> /   </dict> /   <dict> /    <key>name</key> /    <string>Константин Крюков</string> /   </dict> /   <dict> /    <key>name</key> /    <string>Артур Смольянинов</string> /   </dict> /   <dict> /    <key>name</key> /    <string>Михаил Пореченков</string> /   </dict> /   <dict> /    <key>name</key> /    <string>Ирина Рахманова</string> /   </dict> /   <dict> /    <key>name</key> /    <string>Алексей Серебряков</string> /   </dict> /   <dict> /    <key>name</key> /    <string>Михаил Ефремов</string> /   </dict> /  </array> /  <key>directors</key> /  <array> /   <dict> /    <key>name</key> /    <string>Фёдор Бондарчук</string> /   </dict> /  </array> /  <key>producers</key> /  <array> /   <dict> /    <key>name</key> /    <string>Фёдор Бондарчук</string> /   </dict> /   <dict> /    <key>name</key> /    <string>Андрей Хватков</string> /   </dict> /   <dict> /    <key>name</key> /    <string>Илкка Матила</string> /   </dict> /  </array> /  <key>screenwriters</key> /  <array> /   <dict> /    <key>name</key> /    <string>Юрий Коротков</string> /   </dict> /  </array> /  <key>studio</key> /  <string>Art Pictures Group</string> / </dict> / </plist>
    Видео #1
    Идентификатор                            : 1
    Формат                                   : AVC
    Формат/Информация                        : Advanced Video Codec
    Профиль формата                          : High@L3.1
    Параметр CABAC формата                   : Нет
    Параметр ReFrames формата                : 3 кадра
    Идентификатор кодека                     : avc1
    Идентификатор кодека/Информация          : Advanced Video Coding
    Продолжительность                        : 2 ч. 19 м.
    Вид битрейта                             : Переменный
    Битрейт                                  : 7000 Кбит/сек
    Ширина                                   : 1280 пикселей
    Высота                                   : 514 пикселей
    Соотношение сторон                       : 2,490
    Режим частоты кадров                     : Переменный
    Частота кадров                           : 23,976 кадра/сек
    Минимальная частота кадров               : 23,810 кадра/сек
    Максимальная частота кадров              : 24,390 кадра/сек
    Цветовое пространство                    : YUV
    Субдискретизация насыщенности            : 4:2:0
    Битовая глубина                          : 8 бит
    Тип развёртки                            : Прогрессивная
    Бит/(Пиксели*Кадры)                      : 0.444
    Размер потока                            : 6,79 Гбайт (86%)
    Библиотека кодирования                   : x264 core 130 r2273 b3065e6
    Настройки программы                      : cabac=0 / ref=3 / deblock=1:-2:-2 / analyse=0x3:0x113 / me=umh / subme=9 / psy=1 / psy_rd=1.00:0.00 / mixed_ref=1 / me_range=32 / chroma_me=1 / trellis=0 / 8x8dct=1 / cqm=0 / deadzone=21,11 / fast_pskip=1 / chroma_qp_offset=-2 / threads=18 / lookahead_threads=1 / sliced_threads=0 / nr=0 / decimate=1 / interlaced=0 / bluray_compat=0 / constrained_intra=0 / bframes=8 / b_pyramid=0 / b_adapt=1 / b_bias=0 / direct=1 / weightb=0 / open_gop=0 / weightp=0 / keyint=240 / keyint_min=24 / scenecut=40 / intra_refresh=0 / rc_lookahead=40 / rc=2pass / mbtree=1 / bitrate=7000 / ratetol=1.0 / qcomp=0.60 / qpmin=4 / qpmax=69 / qpstep=4 / cplxblur=20.0 / qblur=0.5 / vbv_maxrate=9500 / vbv_bufsize=9500 / nal_hrd=none / ip_ratio=1.40 / aq=1:0.80
    Язык                                     : Russian
    Дата кодирования                         : UTC 2014-11-01 06:27:07
    Дата пометки                             : UTC 2014-11-01 06:31:26
    Основные цвета                           : BT.709-5, BT.1361, IEC 61966-2-4, SMPTE RP177
    Характеристики трансфера                 : BT.709-5, BT.1361
    Коэффициенты матрицы                     : BT.709-5, BT.1361, IEC 61966-2-4 709, SMPTE RP177
    Видео #2
    Идентификатор                            : 12
    Формат                                   : JPEG
    Идентификатор кодека                     : jpeg
    Продолжительность                        : 2 ч. 19 м.
    Вид битрейта                             : Переменный
    Битрейт                                  : 619 бит/сек
    Ширина                                   : 640 пикселей
    Высота                                   : 257 пикселей
    Соотношение сторон                       : 2,490
    Режим частоты кадров                     : Переменный
    Частота кадров                           : 0,002 кадр/сек
    Минимальная частота кадров               : 0,001 кадр/сек
    Максимальная частота кадров              : 0,004 кадр/сек
    Цветовое пространство                    : YUV
    Субдискретизация насыщенности            : 4:2:0
    Битовая глубина                          : 8 бит
    Метод сжатия                             : С потерями
    Бит/(Пиксели*Кадры)                      : 1.882
    Размер потока                            : 492 Кбайт (0%)
    Язык                                     : Russian
    Дата кодирования                         : UTC 2014-11-01 07:38:52
    Дата пометки                             : UTC 2014-11-01 07:38:52
    Аудио #1
    Идентификатор                            : 2
    Формат                                   : AAC
    Формат/Информация                        : Advanced Audio Codec
    Профиль формата                          : LC
    Идентификатор кодека                     : 40
    Продолжительность                        : 2 ч. 19 м.
    Вид битрейта                             : Переменный
    Битрейт                                  : 165 Кбит/сек
    Максимальный битрейт                     : 258 Кбит/сек
    Каналы                                   : 2 канала
    Расположение каналов                     : Front: L R
    Частота                                  : 48,0 КГц
    Метод сжатия                             : С потерями
    Задержка видео                           : -7 с. 0 мс.
    Размер потока                            : 164 Мбайт (2%)
    Язык                                     : Russian
    Дата кодирования                         : UTC 2014-11-01 07:37:58
    Дата пометки                             : UTC 2014-11-01 07:38:45
    Аудио #2
    Идентификатор                            : 3
    Формат                                   : AAC
    Формат/Информация                        : Advanced Audio Codec
    Профиль формата                          : LC
    Идентификатор кодека                     : 40
    Продолжительность                        : 2 ч. 19 м.
    Вид битрейта                             : Переменный
    Битрейт                                  : 165 Кбит/сек
    Максимальный битрейт                     : 260 Кбит/сек
    Каналы                                   : 2 канала
    Расположение каналов                     : Front: L R
    Частота                                  : 48,0 КГц
    Метод сжатия                             : С потерями
    Задержка видео                           : -7 с. 0 мс.
    Размер потока                            : 164 Мбайт (2%)
    Язык                                     : German
    Дата кодирования                         : UTC 2014-11-01 07:37:59
    Дата пометки                             : UTC 2014-11-01 07:38:45
    Аудио #3
    Идентификатор                            : 4
    Формат                                   : AAC
    Формат/Информация                        : Advanced Audio Codec
    Профиль формата                          : LC
    Идентификатор кодека                     : 40
    Продолжительность                        : 2 ч. 19 м.
    Вид битрейта                             : Переменный
    Битрейт                                  : 165 Кбит/сек
    Максимальный битрейт                     : 262 Кбит/сек
    Каналы                                   : 2 канала
    Расположение каналов                     : Front: L R
    Частота                                  : 48,0 КГц
    Метод сжатия                             : С потерями
    Задержка видео                           : -7 с. 0 мс.
    Размер потока                            : 164 Мбайт (2%)
    Язык                                     : French
    Дата кодирования                         : UTC 2014-11-01 07:37:59
    Дата пометки                             : UTC 2014-11-01 07:38:45
    Аудио #4
    Идентификатор                            : 5
    Формат                                   : AC-3
    Формат/Информация                        : Audio Coding 3
    Расширение режима                        : CM (complete main)
    Параметр Endianness формата              : Big
    Идентификатор кодека                     : ac-3
    Продолжительность                        : 2 ч. 19 м.
    Вид битрейта                             : Постоянный
    Битрейт                                  : 640 Кбит/сек
    Каналы                                   : 6 каналов
    Расположение каналов                     : Front: L C R, Side: L R, LFE
    Частота                                  : 48,0 КГц
    Битовая глубина                          : 16 бит
    Метод сжатия                             : С потерями
    Задержка видео                           : -7 с. 0 мс.
    Размер потока                            : 637 Мбайт (8%)
    Язык                                     : Russian
    Дата кодирования                         : UTC 2014-11-01 07:37:59
    Дата пометки                             : UTC 2014-11-01 07:38:28
    Текст #1
    Идентификатор                            : 6
    Формат                                   : Timed text
    Режим смешивания                         : sbtl
    Идентификатор кодека                     : tx3g
    Продолжительность                        : 2 ч. 14 м.
    Вид битрейта                             : Переменный
    Битрейт                                  : 70 бит/сек
    Задержка видео                           : -7 с. 0 мс.
    Размер потока                            : 68,7 Кбайт (0%)
    Язык                                     : Russian
    Дата кодирования                         : UTC 2014-11-01 07:37:59
    Дата пометки                             : UTC 2014-11-01 07:37:59
    Текст #2
    Идентификатор                            : 7
    Формат                                   : Timed text
    Режим смешивания                         : sbtl
    Идентификатор кодека                     : tx3g
    Продолжительность                        : 2 ч. 14 м.
    Вид битрейта                             : Переменный
    Битрейт                                  : 40 бит/сек
    Задержка видео                           : -7 с. 0 мс.
    Размер потока                            : 40,0 Кбайт (0%)
    Язык                                     : English
    Дата кодирования                         : UTC 2014-11-01 07:37:59
    Дата пометки                             : UTC 2014-11-01 07:37:59
    Текст #3
    Идентификатор                            : 8
    Формат                                   : Timed text
    Режим смешивания                         : sbtl
    Идентификатор кодека                     : tx3g
    Продолжительность                        : 2 ч. 14 м.
    Вид битрейта                             : Переменный
    Битрейт                                  : 48 бит/сек
    Задержка видео                           : -7 с. 0 мс.
    Размер потока                            : 47,1 Кбайт (0%)
    Язык                                     : German
    Дата кодирования                         : UTC 2014-11-01 07:37:59
    Дата пометки                             : UTC 2014-11-01 07:37:59
    Текст #4
    Идентификатор                            : 9
    Формат                                   : Timed text
    Режим смешивания                         : sbtl
    Идентификатор кодека                     : tx3g
    Продолжительность                        : 2 ч. 15 м.
    Вид битрейта                             : Переменный
    Битрейт                                  : 45 бит/сек
    Задержка видео                           : -7 с. 0 мс.
    Размер потока                            : 44,5 Кбайт (0%)
    Язык                                     : French
    Дата кодирования                         : UTC 2014-11-01 07:37:59
    Дата пометки                             : UTC 2014-11-01 07:37:59
    Текст #5
    Идентификатор                            : 10
    Формат                                   : Timed text
    Режим смешивания                         : sbtl
    Идентификатор кодека                     : tx3g
    Продолжительность                        : 2 ч. 15 м.
    Вид битрейта                             : Переменный
    Битрейт                                  : 41 бит/сек
    Задержка видео                           : -7 с. 0 мс.
    Размер потока                            : 41,0 Кбайт (0%)
    Язык                                     : Spanish
    Дата кодирования                         : UTC 2014-11-01 07:37:59
    Дата пометки                             : UTC 2014-11-01 07:37:59
    Текст #6
    Идентификатор                            : 11
    Формат                                   : Apple text
    Идентификатор кодека                     : text
    Продолжительность                        : 2 ч. 19 м.
    Вид битрейта                             : Переменный
    Битрейт                                  : 0 бит/сек
    Задержка видео                           : -7 с. 0 мс.
    Размер потока                            : 303 байт (0%)
    Язык                                     : English
    Дата кодирования                         : UTC 2014-11-01 07:38:45
    Дата пометки                             : UTC 2014-11-01 07:38:45
    Меню
    00:00:00.000                             : Chapter 1
    00:10:05.646                             : Chapter 2
    00:22:35.520                             : Chapter 3
    00:33:44.480                             : Chapter 4
    00:45:04.993                             : Chapter 5
    00:56:54.619                             : Chapter 6
    01:06:51.757                             : Chapter 7
    01:17:37.235                             : Chapter 8
    01:31:03.541                             : Chapter 9
    01:39:10.277                             : Chapter 10
    01:51:39.484                             : Chapter 11
    02:02:45.483                             : Chapter 12
    02:14:46.703                             : Chapter 13

    MediaInfo 1080p Release

    Общее
    Полное имя                               : Z:\ATV\9 Rota\9 Rota (1080p HD).m4v
    Формат                                   : MPEG-4
    Идентификатор кодека                     : M4V
    Размер файла                             : 16,9 Гбайт
    Продолжительность                        : 2 ч. 19 м.
    Режим общего битрейта                    : Переменный
    Общий поток                              : 17,4 Мбит/сек
    Название фильма                          : 9 рота
    Исполнитель                              : Фeдор Бондарчук
    Жанр                                     : Drama
    Дата записи                              : UTC 2005-09-29 08:00:00
    Дата кодирования                         : UTC 2014-11-01 06:13:02
    Дата пометки                             : UTC 2014-11-01 06:49:24
    Обложка                                  : Yes
    sonm                                     : 9 рота
    desc                                     : СССР. Действие происходит в 1988 и 1989 годах, за несколько месяцев до полного вывода советских войск из Афганистана. Группа десантников, бойцами которой стали наши герои, получает задание командования - занять высоту и держать ее до прохождения колонны...
    ldes                                     : СССР. Действие происходит в 1988 и 1989 годах, за несколько месяцев до полного вывода советских войск из Афганистана. Семеро призывников, после нескольких месяцев адской подготовки в "учебке" под командованием беспощадного старшины, попадают в горнило афганской кампании. / Группа десантников, бойцами которой стали наши герои, получает задание командования - занять высоту и держать ее до прохождения колонны...
    hdvd                                     : 2
    stik                                     : 9
    rtng                                     : 0
    cnID                                     : 791802918
    xid                                      : Apple:vendor_id:2005-84674
    iTunEXTC                                 : ru-movie|16+|375|
    iTunMOVI                                 : <?xml version="1.0" encoding="UTF-8"?> / <!DOCTYPE plist PUBLIC "-//Apple//DTD PLIST 1.0//EN" "http://anonym.to/?http://www.apple.com/DTDs/PropertyList-1.0.dtd"> / <plist version="1.0"> / <dict> /  <key>cast</key> /  <array> /   <dict> /    <key>name</key> /    <string>Фёдор Бондарчук</string> /   </dict> /   <dict> /    <key>name</key> /    <string>Алексей Чадов</string> /   </dict> /   <dict> /    <key>name</key> /    <string>Иван Кокорин</string> /   </dict> /   <dict> /    <key>name</key> /    <string>Артем Михалков</string> /   </dict> /   <dict> /    <key>name</key> /    <string>Константин Крюков</string> /   </dict> /   <dict> /    <key>name</key> /    <string>Артур Смольянинов</string> /   </dict> /   <dict> /    <key>name</key> /    <string>Михаил Пореченков</string> /   </dict> /   <dict> /    <key>name</key> /    <string>Ирина Рахманова</string> /   </dict> /   <dict> /    <key>name</key> /    <string>Алексей Серебряков</string> /   </dict> /   <dict> /    <key>name</key> /    <string>Михаил Ефремов</string> /   </dict> /  </array> /  <key>directors</key> /  <array> /   <dict> /    <key>name</key> /    <string>Фёдор Бондарчук</string> /   </dict> /  </array> /  <key>producers</key> /  <array> /   <dict> /    <key>name</key> /    <string>Фёдор Бондарчук</string> /   </dict> /   <dict> /    <key>name</key> /    <string>Андрей Хватков</string> /   </dict> /   <dict> /    <key>name</key> /    <string>Илкка Матила</string> /   </dict> /  </array> /  <key>screenwriters</key> /  <array> /   <dict> /    <key>name</key> /    <string>Юрий Коротков</string> /   </dict> /  </array> /  <key>studio</key> /  <string>Art Pictures Group</string> / </dict> / </plist>
    Видео #1
    Идентификатор                            : 1
    Формат                                   : AVC
    Формат/Информация                        : Advanced Video Codec
    Профиль формата                          : High@L4.0
    Параметр CABAC формата                   : Да
    Параметр ReFrames формата                : 4 кадра
    Идентификатор кодека                     : avc1
    Идентификатор кодека/Информация          : Advanced Video Coding
    Продолжительность                        : 2 ч. 19 м.
    Вид битрейта                             : Переменный
    Битрейт                                  : 16,3 Мбит/сек
    Ширина                                   : 1920 пикселей
    Высота                                   : 772 пикселя
    Соотношение сторон                       : 2,487
    Режим частоты кадров                     : Переменный
    Частота кадров                           : 23,976 кадра/сек
    Минимальная частота кадров               : 23,810 кадра/сек
    Максимальная частота кадров              : 24,390 кадра/сек
    Цветовое пространство                    : YUV
    Субдискретизация насыщенности            : 4:2:0
    Битовая глубина                          : 8 бит
    Тип развёртки                            : Прогрессивная
    Бит/(Пиксели*Кадры)                      : 0.459
    Размер потока                            : 15,8 Гбайт (93%)
    Библиотека кодирования                   : x264 core 130 r2273 b3065e6
    Настройки программы                      : cabac=1 / ref=4 / deblock=1:-2:-2 / analyse=0x3:0x113 / me=umh / subme=9 / psy=1 / psy_rd=1.00:0.00 / mixed_ref=1 / me_range=32 / chroma_me=1 / trellis=2 / 8x8dct=1 / cqm=0 / deadzone=21,11 / fast_pskip=1 / chroma_qp_offset=-2 / threads=18 / lookahead_threads=1 / sliced_threads=0 / nr=0 / decimate=1 / interlaced=0 / bluray_compat=0 / constrained_intra=0 / bframes=8 / b_pyramid=2 / b_adapt=1 / b_bias=0 / direct=1 / weightb=1 / open_gop=0 / weightp=2 / keyint=240 / keyint_min=24 / scenecut=40 / intra_refresh=0 / rc_lookahead=40 / rc=2pass / mbtree=1 / bitrate=16300 / ratetol=1.0 / qcomp=0.60 / qpmin=0 / qpmax=69 / qpstep=4 / cplxblur=20.0 / qblur=0.5 / vbv_maxrate=25000 / vbv_bufsize=25000 / nal_hrd=none / ip_ratio=1.40 / aq=1:0.80
    Язык                                     : Russian
    Дата кодирования                         : UTC 2014-11-01 06:13:02
    Дата пометки                             : UTC 2014-11-01 06:26:25
    Основные цвета                           : BT.709-5, BT.1361, IEC 61966-2-4, SMPTE RP177
    Характеристики трансфера                 : BT.709-5, BT.1361
    Коэффициенты матрицы                     : BT.709-5, BT.1361, IEC 61966-2-4 709, SMPTE RP177
    Видео #2
    Идентификатор                            : 12
    Формат                                   : JPEG
    Идентификатор кодека                     : jpeg
    Продолжительность                        : 2 ч. 19 м.
    Вид битрейта                             : Переменный
    Битрейт                                  : 601 бит/сек
    Ширина                                   : 640 пикселей
    Высота                                   : 257 пикселей
    Соотношение сторон                       : 2,490
    Режим частоты кадров                     : Переменный
    Частота кадров                           : 0,002 кадр/сек
    Минимальная частота кадров               : 0,001 кадр/сек
    Максимальная частота кадров              : 0,004 кадр/сек
    Цветовое пространство                    : YUV
    Субдискретизация насыщенности            : 4:2:0
    Битовая глубина                          : 8 бит
    Метод сжатия                             : С потерями
    Бит/(Пиксели*Кадры)                      : 1.827
    Размер потока                            : 477 Кбайт (0%)
    Язык                                     : Russian
    Дата кодирования                         : UTC 2014-11-01 06:40:04
    Дата пометки                             : UTC 2014-11-01 06:40:05
    Аудио #1
    Идентификатор                            : 2
    Формат                                   : AAC
    Формат/Информация                        : Advanced Audio Codec
    Профиль формата                          : LC
    Идентификатор кодека                     : 40
    Продолжительность                        : 2 ч. 19 м.
    Вид битрейта                             : Переменный
    Битрейт                                  : 165 Кбит/сек
    Максимальный битрейт                     : 258 Кбит/сек
    Каналы                                   : 2 канала
    Расположение каналов                     : Front: L R
    Частота                                  : 48,0 КГц
    Метод сжатия                             : С потерями
    Задержка видео                           : -14 с.
    Размер потока                            : 164 Мбайт (1%)
    Язык                                     : Russian
    Дата кодирования                         : UTC 2014-11-01 06:38:56
    Дата пометки                             : UTC 2014-11-01 06:39:47
    Аудио #2
    Идентификатор                            : 3
    Формат                                   : AAC
    Формат/Информация                        : Advanced Audio Codec
    Профиль формата                          : LC
    Идентификатор кодека                     : 40
    Продолжительность                        : 2 ч. 19 м.
    Вид битрейта                             : Переменный
    Битрейт                                  : 165 Кбит/сек
    Максимальный битрейт                     : 260 Кбит/сек
    Каналы                                   : 2 канала
    Расположение каналов                     : Front: L R
    Частота                                  : 48,0 КГц
    Метод сжатия                             : С потерями
    Задержка видео                           : -14 с.
    Размер потока                            : 164 Мбайт (1%)
    Язык                                     : German
    Дата кодирования                         : UTC 2014-11-01 06:38:56
    Дата пометки                             : UTC 2014-11-01 06:39:47
    Аудио #3
    Идентификатор                            : 4
    Формат                                   : AAC
    Формат/Информация                        : Advanced Audio Codec
    Профиль формата                          : LC
    Идентификатор кодека                     : 40
    Продолжительность                        : 2 ч. 19 м.
    Вид битрейта                             : Переменный
    Битрейт                                  : 165 Кбит/сек
    Максимальный битрейт                     : 262 Кбит/сек
    Каналы                                   : 2 канала
    Расположение каналов                     : Front: L R
    Частота                                  : 48,0 КГц
    Метод сжатия                             : С потерями
    Задержка видео                           : -14 с.
    Размер потока                            : 164 Мбайт (1%)
    Язык                                     : French
    Дата кодирования                         : UTC 2014-11-01 06:38:56
    Дата пометки                             : UTC 2014-11-01 06:39:47
    Аудио #4
    Идентификатор                            : 5
    Формат                                   : AC-3
    Формат/Информация                        : Audio Coding 3
    Расширение режима                        : CM (complete main)
    Параметр Endianness формата              : Big
    Идентификатор кодека                     : ac-3
    Продолжительность                        : 2 ч. 19 м.
    Вид битрейта                             : Постоянный
    Битрейт                                  : 640 Кбит/сек
    Каналы                                   : 6 каналов
    Расположение каналов                     : Front: L C R, Side: L R, LFE
    Частота                                  : 48,0 КГц
    Битовая глубина                          : 16 бит
    Метод сжатия                             : С потерями
    Задержка видео                           : -14 с.
    Размер потока                            : 637 Мбайт (4%)
    Язык                                     : Russian
    Дата кодирования                         : UTC 2014-11-01 06:38:56
    Дата пометки                             : UTC 2014-11-01 06:39:43
    Текст #1
    Идентификатор                            : 6
    Формат                                   : Timed text
    Режим смешивания                         : sbtl
    Идентификатор кодека                     : tx3g
    Продолжительность                        : 2 ч. 14 м.
    Вид битрейта                             : Переменный
    Битрейт                                  : 70 бит/сек
    Задержка видео                           : -14 с.
    Размер потока                            : 68,7 Кбайт (0%)
    Язык                                     : Russian
    Дата кодирования                         : UTC 2014-11-01 06:38:56
    Дата пометки                             : UTC 2014-11-01 06:38:56
    Текст #2
    Идентификатор                            : 7
    Формат                                   : Timed text
    Режим смешивания                         : sbtl
    Идентификатор кодека                     : tx3g
    Продолжительность                        : 2 ч. 14 м.
    Вид битрейта                             : Переменный
    Битрейт                                  : 40 бит/сек
    Задержка видео                           : -14 с.
    Размер потока                            : 40,0 Кбайт (0%)
    Язык                                     : English
    Дата кодирования                         : UTC 2014-11-01 06:38:56
    Дата пометки                             : UTC 2014-11-01 06:38:56
    Текст #3
    Идентификатор                            : 8
    Формат                                   : Timed text
    Режим смешивания                         : sbtl
    Идентификатор кодека                     : tx3g
    Продолжительность                        : 2 ч. 14 м.
    Вид битрейта                             : Переменный
    Битрейт                                  : 48 бит/сек
    Задержка видео                           : -14 с.
    Размер потока                            : 47,1 Кбайт (0%)
    Язык                                     : German
    Дата кодирования                         : UTC 2014-11-01 06:38:56
    Дата пометки                             : UTC 2014-11-01 06:38:56
    Текст #4
    Идентификатор                            : 9
    Формат                                   : Timed text
    Режим смешивания                         : sbtl
    Идентификатор кодека                     : tx3g
    Продолжительность                        : 2 ч. 15 м.
    Вид битрейта                             : Переменный
    Битрейт                                  : 45 бит/сек
    Задержка видео                           : -14 с.
    Размер потока                            : 44,5 Кбайт (0%)
    Язык                                     : French
    Дата кодирования                         : UTC 2014-11-01 06:38:56
    Дата пометки                             : UTC 2014-11-01 06:38:56
    Текст #5
    Идентификатор                            : 10
    Формат                                   : Timed text
    Режим смешивания                         : sbtl
    Идентификатор кодека                     : tx3g
    Продолжительность                        : 2 ч. 15 м.
    Вид битрейта                             : Переменный
    Битрейт                                  : 41 бит/сек
    Задержка видео                           : -14 с.
    Размер потока                            : 41,0 Кбайт (0%)
    Язык                                     : Spanish
    Дата кодирования                         : UTC 2014-11-01 06:38:56
    Дата пометки                             : UTC 2014-11-01 06:38:56
    Текст #6
    Идентификатор                            : 11
    Формат                                   : Apple text
    Идентификатор кодека                     : text
    Продолжительность                        : 2 ч. 19 м.
    Вид битрейта                             : Переменный
    Битрейт                                  : 0 бит/сек
    Задержка видео                           : -14 с.
    Размер потока                            : 303 байт (0%)
    Язык                                     : English
    Дата кодирования                         : UTC 2014-11-01 06:39:47
    Дата пометки                             : UTC 2014-11-01 06:39:47
    Меню
    00:00:00.000                             : Chapter 1
    00:10:05.646                             : Chapter 2
    00:22:35.520                             : Chapter 3
    00:33:44.480                             : Chapter 4
    00:45:04.993                             : Chapter 5
    00:56:54.619                             : Chapter 6
    01:06:51.757                             : Chapter 7
    01:17:37.235                             : Chapter 8
    01:31:03.541                             : Chapter 9
    01:39:10.277                             : Chapter 10
    01:51:39.484                             : Chapter 11
    02:02:45.483                             : Chapter 12
    02:14:46.703                             : Chapter 13

    x264 лог 720p Release

    x264 [info]: frame I:3316  Avg QP:18.22  size:116603  PSNR Mean Y:44.76 U:50.13 V:50.36 Avg:45.92 Global:45.44
    x264 [info]: frame P:117302 Avg QP:20.46  size: 48262  PSNR Mean Y:42.13 U:48.84 V:48.75 Avg:43.39 Global:42.90
    x264 [info]: frame B:79646 Avg QP:21.89  size: 15572  PSNR Mean Y:41.36 U:48.84 V:49.00 Avg:42.72 Global:42.04
    x264 [info]: consecutive B-frames: 29.0% 49.7% 14.3%  5.1%  1.0%  0.1%  0.1%  0.0%  0.7%
    x264 [info]: mb I  I16..4:  7.1% 58.2% 34.7%
    x264 [info]: mb P  I16..4:  1.1%  9.0%  5.1%  P16..4: 34.4% 29.0% 13.3%  0.0%  0.0%    skip: 8.1%
    x264 [info]: mb B  I16..4:  0.2%  1.1%  0.7%  B16..8: 45.0% 13.0%  3.2%  direct: 7.6%  skip:29.2%  L0:35.7% L1:45.9% BI:18.4%
    x264 [info]: 8x8 transform intra:58.8% inter:44.7%
    x264 [info]: coded y,uvDC,uvAC intra: 87.8% 76.0% 37.8% inter: 47.9% 26.9% 2.7%
    x264 [info]: i16 v,h,dc,p: 53% 13%  7% 27%
    x264 [info]: i8 v,h,dc,ddl,ddr,vr,hd,vl,hu: 10%  7%  5% 11% 16% 15% 15% 11% 11%
    x264 [info]: i4 v,h,dc,ddl,ddr,vr,hd,vl,hu: 24%  5%  3% 10% 15% 13% 12% 10%  8%
    x264 [info]: i8c dc,h,v,p: 47% 19% 23% 11%
    x264 [info]: ref P L0: 75.4% 14.5% 10.1%
    x264 [info]: ref B L0: 83.3% 16.7%
    x264 [info]: SSIM Mean Y:0.9673175 (14.857db)
    x264 [info]: PSNR Mean Y:41.866 U:48.862 V:48.875 Avg:43.167 Global:42.566 kb/s:6980.33

    x264 лог 1080p Release

    x264 [info]: frame I:3447  Avg QP:17.88  size:201419  PSNR Mean Y:45.96 U:51.47 V:51.76 Avg:47.14 Global:46.86
    x264 [info]: frame P:128718 Avg QP:20.15  size:102010  PSNR Mean Y:43.34 U:49.69 V:49.81 Avg:44.60 Global:44.20
    x264 [info]: frame B:68099 Avg QP:21.79  size: 46148  PSNR Mean Y:42.56 U:50.24 V:50.32 Avg:43.92 Global:43.11
    x264 [info]: consecutive B-frames: 36.8% 50.9%  9.7%  1.5%  0.2%  0.1%  0.1%  0.0%  0.7%
    x264 [info]: mb I  I16..4:  5.6% 87.5%  6.9%
    x264 [info]: mb P  I16..4:  1.3% 15.4%  1.2%  P16..4: 34.1% 28.7% 12.7%  0.0%  0.0%    skip: 6.6%
    x264 [info]: mb B  I16..4:  0.2%  1.6%  0.2%  B16..8: 42.2% 13.4%  4.1%  direct:13.4%  skip:24.9%  L0:36.8% L1:36.1% BI:27.1%
    x264 [info]: 8x8 transform intra:86.1% inter:65.4%
    x264 [info]: coded y,uvDC,uvAC intra: 88.9% 77.0% 27.6% inter: 65.6% 46.9% 2.5%
    x264 [info]: i16 v,h,dc,p: 67% 12%  7% 14%
    x264 [info]: i8 v,h,dc,ddl,ddr,vr,hd,vl,hu:  9%  7%  8% 11% 15% 13% 13% 12% 12%
    x264 [info]: i4 v,h,dc,ddl,ddr,vr,hd,vl,hu: 40%  4%  5%  6% 10% 10%  9%  8%  8%
    x264 [info]: i8c dc,h,v,p: 39% 25% 21% 15%
    x264 [info]: Weighted P-Frames: Y:3.7% UV:1.2%
    x264 [info]: ref P L0: 54.0% 18.0% 16.5%  8.2%  3.2%  0.1%
    x264 [info]: ref B L0: 79.4% 19.7%  0.9%
    x264 [info]: ref B L1: 97.3%  2.7%
    x264 [info]: SSIM Mean Y:0.9710569 (15.385db)
    x264 [info]: PSNR Mean Y:43.119 U:49.905 V:50.017 Avg:44.412 Global:43.833 kb/s:16251.05

    Скриншоты 720p Release


    Скриншоты 1080p Release


    -

    Релиз подготовлен для просмотра на Apple TV, iPad, iPhone, iPod Touch.
    Для просмотра данного релиза на компьютере с ОС Windows рекомендуется использовать VLC media player
    --
    Скачать .torrent

    Скачать торрент-файл бесплатно и на максимальной скорости!

    Как скачивать? · Что такое торрент? · Рейтинг и ограничения

    !ВНИМАНИЕ!
    Сайт не распространяет и не хранит электронные версии произведений, а занимается лишь лишь предоставлением доступа к создаваемому пользователями каталогу ссылок на торрент-файлы, которые содержат только списки хеш-сумм, убедительная просьба с жалобами обращаться напрямую к пользователю. Файлы для обмена на трекере предоставлены пользователями сайта, и администрация не несёт ответственности за их содержание. Просьба не заливать файлы, защищенные авторскими правами, а также файлы нелегального содержания!


    _________________
    [Профиль] [ЛС]
    Показать сообщения:    
    Ответить на тему

    Текущее время: Сегодня, в 08:00

    Часовой пояс: GMT + 2



    Вы не можете начинать темы
    Вы не можете отвечать на сообщения
    Вы не можете редактировать свои сообщения
    Вы не можете удалять свои сообщения
    Вы не можете голосовать в опросах
    Вы не можете прикреплять файлы к сообщениям
    Вы не можете скачивать файлы