BitTorrentTracker PerecTracker.org
BitTorrentTracker PerecTracker.org
    
Регистрация  ·  Вход
 
 · 
Забыли пароль?

  • Поменяться местами / Trading Places (Джон Лэндис / John Landis) [1983, комедия, BDRip, HD (1080p, 720p)] MVO, 2xAVO, Original + sub (rus, eng)

    Ответить на тему
     
    Автор Сообщение

    Flirldrerve

    Создавать темы 27-Окт-2015 05:20

           

    [Цитировать]

    Поменяться местами / Trading Places
    "Они не только разбогатеют... но и отомстят"
    7.768 / 10
    -Год выпуска: 1983
    Страна: США
    Жанр: комедия
    Продолжительность: 116 мин.
    Перевод:
    Профессиональный (многоголосый, закадровый)
    Авторский (одноголосый, закадровый) Гаврилов
    Авторский (одноголосый, закадровый) Володарский
    Режиссёр: Джон Лэндис
    Сценарий: Тимоти Харрис, Хершел Уайнгрод
    Продюсер: Джордж Фолси мл., Аарон Руссо, Ирвин Руссо
    В ролях: Дэн Эйкройд, Эдди Мёрфи, Ральф Беллами, Дон Амичи, Денхолм Эллиот, Джейми Ли Кёртис, Кристин Холби, Пол Глисон, Альфред Дрэйк, Бо Диддли
    Бюджет: $28 000 000
    Сборы в США: $90 404 800
    Мировая премьера: 8 июня 1983
    Релиз на DVD: 30 марта 2010, Юниверсал Пикчерс Рус
    Описание: Жизнь респектабельного бизнесмена Луиса Уинтропа Третьего, управляющего богатейшей компании с Уолл-Стрит, круто меняется после того, как его боссы, братья Дьюк, заключают необычное пари. Один из братьев посчитал, что управлять компанией может кто угодно, даже самый отъявленный и необразованный проходимец.
    Поставив на кон доллар, братья находят для своего эксперимента уличного мошенника Билли Рэя Валентайна, которому и предлагают возглавить компанию вместо Уинтропа. Эксцентрическая парочка Дьюков и не подозревает, что, поменяв местами проходимца и крупного бизнесмена, они рискуют гораздо больше, чем могли бы себе представить.-Качество исходника: BD-Remux 1080p
    Качество: BDRip
    Тип: 720p 1080p
    Контейнер: m4v
    Видео: 1280x720 at 23.976 fps, MPEG-4 AVC, ~4800 kbps avg
    Видео: 1920x1080 at 23.976 fps, MPEG-4 AVC, ~10900 kbps avg
    Аудио#1: Russian: 48 kHz, ААС, 2/0 (L,R), ~160.00 kbps avg |Профессиональный (многоголосый, закадровый)
    Аудио#2: Russian: 48 kHz, ААС, 2/0 (L,R), ~160.00 kbps avg |Авторский (одноголосый, закадровый) Гаврилов
    Аудио#3: Russian: 48 kHz, ААС, 2/0 (L,R), ~160.00 kbps avg |Авторский (одноголосый, закадровый) Володарский
    Аудио#4: English: 48 kHz, ААС, 2/0 (L,R), ~160.00 kbps avg
    Аудио#5: English: 48 kHz, AC3, 3/2 (L,C,R,l,r) + LFE ch, ~448 kbps avg-Субтитры №1: Russian: |Полные
    Субтитры №2: English: |Полные-
    -

    из книги «3500 кинорецензий»


    (Сергей Кудрявцев 6,5/10)
    В основе этой популярной ленты — ставший уже классическим сюжет, знакомый не только по «Принцу и нищему» Марка Твена, но и по комедиям «золотой поры Голливуда». В данном случае, меняются местами богатый филадельфийский бизнесмен Луис Уинторп III и чернокожий уличный мошенник Билли Рей Валентайн, что становится поводом для разного рода комических ситуаций. Режиссёр Джон Лэндис считался в 80-е годы одним из лучших американских комедиографов. Но надо признать, что у него есть творения более значительные («Братья Блюз», видеоклип-шедевр «Триллер»), как и у афроамериканского актёра Эдди Мёрфи («48 часов»), самого кассового комика в кинематографе США той поры.Однако постановщик картины «Поменяться местами» так и не нашёл точного стиля или же синтеза стилей, как это прежде было в его фильме «Братья Блюз». Эта же лента распадается на несколько, в общем-то, удачных частей, среди которых особо можно выделить довольно типичную для Лэндиса эксцентрически-пародийную сцену с обезьяной в поезде. Здесь содержится отсылка к его ранним экстравагантным произведениям, а также к ироническому парафразу киномифа о Кинг Конге. В то же время в картине «Поменяться местами» осталась практически неиспользованной возможность создания тонкой сатирической комедии.1989

    -

    iTunes Meta Tags for country us

    Name: Trading Places
    Artist: John Landis
    Genre: Comedy
    Release Date: 1983-06-08T08:00:00Z
    Description: Жизнь респектабельного бизнесмена Луиса Уинтропа Третьего, управляющего богатейшей компании с Уолл-Стрит, круто меняется после того, как его боссы, братья Дьюк, заключают необычное пари. Один из братьев посчитал, что управлять компанией может кто угодно, даже самый отъявленный и необразованный проходимец.
    Long Description: Жизнь респектабельного бизнесмена Луиса Уинтропа Третьего, управляющего богатейшей компании с Уолл-Стрит, круто меняется после того, как его боссы, братья Дьюк, заключают необычное пари. Один из братьев посчитал, что управлять компанией может кто угодно, даже самый отъявленный и необразованный проходимец.
    Поставив на кон доллар, братья находят для своего эксперимента уличного мошенника Билли Рэя Валентайна, которому и предлагают возглавить компанию вместо Уинтропа. Эксцентрическая парочка Дьюков и не подозревает, что, поменяв местами проходимца и крупного бизнесмена, они рискуют гораздо больше, чем могли бы себе представить.
    Rating: R
    Studio: Paramount Pictures, Cinema Group Ventures
    Cast: Дэн Эйкройд, Эдди Мёрфи, Ральф Беллами, Дон Амичи, Денхолм Эллиот, Джейми Ли Кёртис, Кристин Холби, Пол Глисон, Альфред Дрэйк, Бо Диддли
    Director: Джон Лэндис
    Producers: Джордж Фолси мл., Аарон Руссо, Ирвин Руссо
    Screenwriters: Тимоти Харрис, Хершел Уайнгрод
    Copyright: TM & Copyright © 1983 by Paramount Pictures. All Rights Reserved.
    contentID: 268384321
    XID: Apple:vendor_id:1983-5285
    Sort Name: Trading Places

    MediaInfo 720p Release

    Общее
    Полное имя                               : Z:\ATV\Trading Places\Trading Places (HD).m4v
    Формат                                   : MPEG-4
    Идентификатор кодека                     : M4V
    Размер файла                             : 4,80 Гбайт
    Продолжительность                        : 1 ч. 56 м.
    Режим общего битрейта                    : Переменный
    Общий поток                              : 5908 Кбит/сек
    Название фильма                          : Trading Places
    Исполнитель                              : John Landis
    Жанр                                     : Comedy
    Дата записи                              : UTC 1983-06-08 08:00:00
    Дата кодирования                         : UTC 2014-11-06 13:23:28
    Дата пометки                             : UTC 2014-11-06 14:16:16
    Правообладатель                          : TM & Copyright © 1983 by Paramount Pictures. All Rights Reserved.
    Обложка                                  : Yes
    sonm                                     : Trading Places
    desc                                     : Жизнь респектабельного бизнесмена Луиса Уинтропа Третьего, управляющего богатейшей компании с Уолл-Стрит, круто меняется после того, как его боссы, братья Дьюк, заключают необычное пари. Один из братьев посчитал, что управлять компанией может кто угодно, даже самый отъявленный и необразованный проходимец.
    ldes                                     : Жизнь респектабельного бизнесмена Луиса Уинтропа Третьего, управляющего богатейшей компании с Уолл-Стрит, круто меняется после того, как его боссы, братья Дьюк, заключают необычное пари. Один из братьев посчитал, что управлять компанией может кто угодно, даже самый отъявленный и необразованный проходимец. / Поставив на кон доллар, братья находят для своего эксперимента уличного мошенника Билли Рэя Валентайна, которому и предлагают возглавить компанию вместо Уинтропа. Эксцентрическая парочка Дьюков и не подозревает, что, поменяв местами проходимца и крупного бизнесмена, они рискуют гораздо больше, чем могли бы себе представить.
    hdvd                                     : 1
    stik                                     : 9
    rtng                                     : 0
    cnID                                     : 268384321
    xid                                      : Apple:vendor_id:1983-5285
    iTunEXTC                                 : mpaa|R|400|
    iTunMOVI                                 : <?xml version="1.0" encoding="UTF-8"?> / <!DOCTYPE plist PUBLIC "-//Apple//DTD PLIST 1.0//EN" "http://anonym.to/?http://www.apple.com/DTDs/PropertyList-1.0.dtd"> / <plist version="1.0"> / <dict> /  <key>cast</key> /  <array> /   <dict> /    <key>name</key> /    <string>Дэн Эйкройд</string> /   </dict> /   <dict> /    <key>name</key> /    <string>Эдди Мёрфи</string> /   </dict> /   <dict> /    <key>name</key> /    <string>Ральф Беллами</string> /   </dict> /   <dict> /    <key>name</key> /    <string>Дон Амичи</string> /   </dict> /   <dict> /    <key>name</key> /    <string>Денхолм Эллиот</string> /   </dict> /   <dict> /    <key>name</key> /    <string>Джейми Ли Кёртис</string> /   </dict> /   <dict> /    <key>name</key> /    <string>Кристин Холби</string> /   </dict> /   <dict> /    <key>name</key> /    <string>Пол Глисон</string> /   </dict> /   <dict> /    <key>name</key> /    <string>Альфред Дрэйк</string> /   </dict> /   <dict> /    <key>name</key> /    <string>Бо Диддли</string> /   </dict> /  </array> /  <key>directors</key> /  <array> /   <dict> /    <key>name</key> /    <string>Джон Лэндис</string> /   </dict> /  </array> /  <key>producers</key> /  <array> /   <dict> /    <key>name</key> /    <string>Джордж Фолси мл.</string> /   </dict> /   <dict> /    <key>name</key> /    <string>Аарон Руссо</string> /   </dict> /   <dict> /    <key>name</key> /    <string>Ирвин Руссо</string> /   </dict> /  </array> /  <key>screenwriters</key> /  <array> /   <dict> /    <key>name</key> /    <string>Тимоти Харрис</string> /   </dict> /   <dict> /    <key>name</key> /    <string>Хершел Уайнгрод</string> /   </dict> /  </array> /  <key>studio</key> /  <string>Paramount Pictures, Cinema Group Ventures</string> / </dict> / </plist>
    Видео #1
    Идентификатор                            : 1
    Формат                                   : AVC
    Формат/Информация                        : Advanced Video Codec
    Профиль формата                          : High@L3.1
    Параметр CABAC формата                   : Нет
    Параметр ReFrames формата                : 3 кадра
    Идентификатор кодека                     : avc1
    Идентификатор кодека/Информация          : Advanced Video Coding
    Продолжительность                        : 1 ч. 56 м.
    Вид битрейта                             : Переменный
    Битрейт                                  : 4800 Кбит/сек
    Ширина                                   : 1280 пикселей
    Высота                                   : 720 пикселей
    Соотношение сторон                       : 16:9
    Режим частоты кадров                     : Переменный
    Частота кадров                           : 23,976 кадра/сек
    Минимальная частота кадров               : 23,810 кадра/сек
    Максимальная частота кадров              : 24,390 кадра/сек
    Цветовое пространство                    : YUV
    Субдискретизация насыщенности            : 4:2:0
    Битовая глубина                          : 8 бит
    Тип развёртки                            : Прогрессивная
    Бит/(Пиксели*Кадры)                      : 0.217
    Размер потока                            : 3,90 Гбайт (81%)
    Библиотека кодирования                   : x264 core 130 r2273 b3065e6
    Настройки программы                      : cabac=0 / ref=3 / deblock=1:-3:-3 / analyse=0x3:0x113 / me=umh / subme=9 / psy=1 / psy_rd=1.00:0.00 / mixed_ref=1 / me_range=32 / chroma_me=1 / trellis=0 / 8x8dct=1 / cqm=0 / deadzone=21,11 / fast_pskip=1 / chroma_qp_offset=-2 / threads=18 / lookahead_threads=1 / sliced_threads=0 / nr=0 / decimate=1 / interlaced=0 / bluray_compat=0 / constrained_intra=0 / bframes=8 / b_pyramid=0 / b_adapt=1 / b_bias=0 / direct=1 / weightb=0 / open_gop=0 / weightp=0 / keyint=240 / keyint_min=24 / scenecut=40 / intra_refresh=0 / rc_lookahead=40 / rc=2pass / mbtree=1 / bitrate=4800 / ratetol=1.0 / qcomp=0.60 / qpmin=4 / qpmax=69 / qpstep=4 / cplxblur=20.0 / qblur=0.5 / vbv_maxrate=9500 / vbv_bufsize=9500 / nal_hrd=none / ip_ratio=1.40 / aq=1:0.80
    Язык                                     : English
    Дата кодирования                         : UTC 2014-11-06 13:23:28
    Дата пометки                             : UTC 2014-11-06 13:25:35
    Основные цвета                           : BT.709-5, BT.1361, IEC 61966-2-4, SMPTE RP177
    Характеристики трансфера                 : BT.709-5, BT.1361
    Коэффициенты матрицы                     : BT.709-5, BT.1361, IEC 61966-2-4 709, SMPTE RP177
    Видео #2
    Идентификатор                            : 10
    Формат                                   : JPEG
    Идентификатор кодека                     : jpeg
    Продолжительность                        : 1 ч. 56 м.
    Вид битрейта                             : Переменный
    Битрейт                                  : 1393 бит/сек
    Ширина                                   : 640 пикселей
    Высота                                   : 360 пикселей
    Соотношение сторон                       : 16:9
    Режим частоты кадров                     : Переменный
    Частота кадров                           : 0,003 кадр/сек
    Минимальная частота кадров               : 0,001 кадр/сек
    Максимальная частота кадров              : 0,007 кадр/сек
    Цветовое пространство                    : YUV
    Субдискретизация насыщенности            : 4:2:0
    Битовая глубина                          : 8 бит
    Метод сжатия                             : С потерями
    Бит/(Пиксели*Кадры)                      : 2.015
    Размер потока                            : 1,11 Мбайт (0%)
    Язык                                     : English
    Дата кодирования                         : UTC 2014-11-06 13:44:50
    Дата пометки                             : UTC 2014-11-06 13:44:51
    Аудио #1
    Идентификатор                            : 2
    Формат                                   : AAC
    Формат/Информация                        : Advanced Audio Codec
    Профиль формата                          : LC
    Идентификатор кодека                     : 40
    Продолжительность                        : 1 ч. 56 м.
    Вид битрейта                             : Переменный
    Битрейт                                  : 160 Кбит/сек
    Максимальный битрейт                     : 165 Кбит/сек
    Каналы                                   : 2 канала
    Расположение каналов                     : Front: L R
    Частота                                  : 48,0 КГц
    Метод сжатия                             : С потерями
    Задержка видео                           : -7 с. 0 мс.
    Размер потока                            : 133 Мбайт (3%)
    Язык                                     : Russian
    Дата кодирования                         : UTC 2014-11-06 13:44:05
    Дата пометки                             : UTC 2014-11-06 13:44:33
    Аудио #2
    Идентификатор                            : 3
    Формат                                   : AAC
    Формат/Информация                        : Advanced Audio Codec
    Профиль формата                          : LC
    Идентификатор кодека                     : 40
    Продолжительность                        : 1 ч. 56 м.
    Вид битрейта                             : Переменный
    Битрейт                                  : 164 Кбит/сек
    Максимальный битрейт                     : 267 Кбит/сек
    Каналы                                   : 2 канала
    Расположение каналов                     : Front: L R
    Частота                                  : 48,0 КГц
    Метод сжатия                             : С потерями
    Задержка видео                           : -7 с. 0 мс.
    Размер потока                            : 136 Мбайт (3%)
    Язык                                     : Russian
    Дата кодирования                         : UTC 2014-11-06 13:44:05
    Дата пометки                             : UTC 2014-11-06 13:44:33
    Аудио #3
    Идентификатор                            : 4
    Формат                                   : AAC
    Формат/Информация                        : Advanced Audio Codec
    Профиль формата                          : LC
    Идентификатор кодека                     : 40
    Продолжительность                        : 1 ч. 56 м.
    Вид битрейта                             : Переменный
    Битрейт                                  : 164 Кбит/сек
    Максимальный битрейт                     : 206 Кбит/сек
    Каналы                                   : 2 канала
    Расположение каналов                     : Front: L R
    Частота                                  : 48,0 КГц
    Метод сжатия                             : С потерями
    Задержка видео                           : -7 с. 0 мс.
    Размер потока                            : 136 Мбайт (3%)
    Язык                                     : Russian
    Дата кодирования                         : UTC 2014-11-06 13:44:05
    Дата пометки                             : UTC 2014-11-06 13:44:33
    Аудио #4
    Идентификатор                            : 5
    Формат                                   : AAC
    Формат/Информация                        : Advanced Audio Codec
    Профиль формата                          : LC
    Идентификатор кодека                     : 40
    Продолжительность                        : 1 ч. 56 м.
    Вид битрейта                             : Переменный
    Битрейт                                  : 164 Кбит/сек
    Максимальный битрейт                     : 278 Кбит/сек
    Каналы                                   : 2 канала
    Расположение каналов                     : Front: L R
    Частота                                  : 48,0 КГц
    Метод сжатия                             : С потерями
    Задержка видео                           : -7 с. 0 мс.
    Размер потока                            : 137 Мбайт (3%)
    Язык                                     : English
    Дата кодирования                         : UTC 2014-11-06 13:44:05
    Дата пометки                             : UTC 2014-11-06 13:44:33
    Аудио #5
    Идентификатор                            : 6
    Формат                                   : AC-3
    Формат/Информация                        : Audio Coding 3
    Расширение режима                        : CM (complete main)
    Параметр Endianness формата              : Big
    Идентификатор кодека                     : ac-3
    Продолжительность                        : 1 ч. 56 м.
    Вид битрейта                             : Постоянный
    Битрейт                                  : 448 Кбит/сек
    Каналы                                   : 6 каналов
    Расположение каналов                     : Front: L C R, Side: L R, LFE
    Частота                                  : 48,0 КГц
    Битовая глубина                          : 16 бит
    Метод сжатия                             : С потерями
    Задержка видео                           : -7 с. 0 мс.
    Размер потока                            : 373 Мбайт (8%)
    Язык                                     : English
    Дата кодирования                         : UTC 2014-11-06 13:44:05
    Дата пометки                             : UTC 2014-11-06 13:44:23
    Текст #1
    Идентификатор                            : 7
    Формат                                   : Timed text
    Режим смешивания                         : sbtl
    Идентификатор кодека                     : tx3g
    Продолжительность                        : 1 ч. 52 м.
    Вид битрейта                             : Переменный
    Битрейт                                  : 107 бит/сек
    Задержка видео                           : -7 с. 0 мс.
    Размер потока                            : 87,9 Кбайт (0%)
    Язык                                     : Russian
    Дата кодирования                         : UTC 2014-11-06 13:44:05
    Дата пометки                             : UTC 2014-11-06 13:44:05
    Текст #2
    Идентификатор                            : 8
    Формат                                   : Timed text
    Режим смешивания                         : sbtl
    Идентификатор кодека                     : tx3g
    Продолжительность                        : 1 ч. 52 м.
    Вид битрейта                             : Переменный
    Битрейт                                  : 60 бит/сек
    Задержка видео                           : -7 с. 0 мс.
    Размер потока                            : 49,0 Кбайт (0%)
    Язык                                     : English
    Дата кодирования                         : UTC 2014-11-06 13:44:05
    Дата пометки                             : UTC 2014-11-06 13:44:05
    Текст #3
    Идентификатор                            : 9
    Формат                                   : Apple text
    Идентификатор кодека                     : text
    Продолжительность                        : 1 ч. 56 м.
    Вид битрейта                             : Переменный
    Битрейт                                  : 1 бит/сек
    Задержка видео                           : -7 с. 0 мс.
    Размер потока                            : 616 байт (0%)
    Язык                                     : English
    Дата кодирования                         : UTC 2014-11-06 13:44:33
    Дата пометки                             : UTC 2014-11-06 13:44:33
    Меню
    00:00:00.000                             : Philadelphia
    00:03:42.013                             : Pork Bellies
    00:06:28.846                             : Duke & Duke
    00:16:00.084                             : Is There a Problem, Officers?
    00:18:41.078                             : The Usual Wager
    00:23:11.306                             : Whiskey, All You Want
    00:28:51.604                             : Billy Ray's Stuff
    00:32:44.671                             : Thief Among Us
    00:39:16.937                             : It Was a Stone Groove, My Man
    00:45:14.086                             : Heroin Dealer
    00:53:56.399                             : A Couple of Bookies
    00:57:49.299                             : Ophelia's Flat
    01:01:00.615                             : Mr. Valentine Sets the Price
    01:06:12.885                             : Fifty Bucks
    01:11:49.805                             : Christmas Eve
    01:23:24.165                             : A Most Absurd Nightmare
    01:27:10.058                             : Merry New Year
    01:38:48.839                             : Fcoj
    01:48:45.727                             : Turn the Machines Back On
    01:51:03.657                             : Looking Good

    MediaInfo 1080p Release

    Общее
    Полное имя                               : Z:\ATV\Trading Places\Trading Places (1080p HD).m4v
    Формат                                   : MPEG-4
    Идентификатор кодека                     : M4V
    Размер файла                             : 9,73 Гбайт
    Продолжительность                        : 1 ч. 56 м.
    Режим общего битрейта                    : Переменный
    Общий поток                              : 12,0 Мбит/сек
    Название фильма                          : Trading Places
    Исполнитель                              : John Landis
    Жанр                                     : Comedy
    Дата записи                              : UTC 1983-06-08 08:00:00
    Дата кодирования                         : UTC 2014-11-06 13:16:44
    Дата пометки                             : UTC 2014-11-06 14:45:39
    Правообладатель                          : TM & Copyright © 1983 by Paramount Pictures. All Rights Reserved.
    Обложка                                  : Yes
    sonm                                     : Trading Places
    desc                                     : Жизнь респектабельного бизнесмена Луиса Уинтропа Третьего, управляющего богатейшей компании с Уолл-Стрит, круто меняется после того, как его боссы, братья Дьюк, заключают необычное пари. Один из братьев посчитал, что управлять компанией может кто угодно, даже самый отъявленный и необразованный проходимец.
    ldes                                     : Жизнь респектабельного бизнесмена Луиса Уинтропа Третьего, управляющего богатейшей компании с Уолл-Стрит, круто меняется после того, как его боссы, братья Дьюк, заключают необычное пари. Один из братьев посчитал, что управлять компанией может кто угодно, даже самый отъявленный и необразованный проходимец. / Поставив на кон доллар, братья находят для своего эксперимента уличного мошенника Билли Рэя Валентайна, которому и предлагают возглавить компанию вместо Уинтропа. Эксцентрическая парочка Дьюков и не подозревает, что, поменяв местами проходимца и крупного бизнесмена, они рискуют гораздо больше, чем могли бы себе представить.
    hdvd                                     : 2
    stik                                     : 9
    rtng                                     : 0
    cnID                                     : 268384321
    xid                                      : Apple:vendor_id:1983-5285
    iTunEXTC                                 : mpaa|R|400|
    iTunMOVI                                 : <?xml version="1.0" encoding="UTF-8"?> / <!DOCTYPE plist PUBLIC "-//Apple//DTD PLIST 1.0//EN" "http://anonym.to/?http://www.apple.com/DTDs/PropertyList-1.0.dtd"> / <plist version="1.0"> / <dict> /  <key>cast</key> /  <array> /   <dict> /    <key>name</key> /    <string>Дэн Эйкройд</string> /   </dict> /   <dict> /    <key>name</key> /    <string>Эдди Мёрфи</string> /   </dict> /   <dict> /    <key>name</key> /    <string>Ральф Беллами</string> /   </dict> /   <dict> /    <key>name</key> /    <string>Дон Амичи</string> /   </dict> /   <dict> /    <key>name</key> /    <string>Денхолм Эллиот</string> /   </dict> /   <dict> /    <key>name</key> /    <string>Джейми Ли Кёртис</string> /   </dict> /   <dict> /    <key>name</key> /    <string>Кристин Холби</string> /   </dict> /   <dict> /    <key>name</key> /    <string>Пол Глисон</string> /   </dict> /   <dict> /    <key>name</key> /    <string>Альфред Дрэйк</string> /   </dict> /   <dict> /    <key>name</key> /    <string>Бо Диддли</string> /   </dict> /  </array> /  <key>directors</key> /  <array> /   <dict> /    <key>name</key> /    <string>Джон Лэндис</string> /   </dict> /  </array> /  <key>producers</key> /  <array> /   <dict> /    <key>name</key> /    <string>Джордж Фолси мл.</string> /   </dict> /   <dict> /    <key>name</key> /    <string>Аарон Руссо</string> /   </dict> /   <dict> /    <key>name</key> /    <string>Ирвин Руссо</string> /   </dict> /  </array> /  <key>screenwriters</key> /  <array> /   <dict> /    <key>name</key> /    <string>Тимоти Харрис</string> /   </dict> /   <dict> /    <key>name</key> /    <string>Хершел Уайнгрод</string> /   </dict> /  </array> /  <key>studio</key> /  <string>Paramount Pictures, Cinema Group Ventures</string> / </dict> / </plist>
    Видео #1
    Идентификатор                            : 1
    Формат                                   : AVC
    Формат/Информация                        : Advanced Video Codec
    Профиль формата                          : High@L4.0
    Параметр CABAC формата                   : Да
    Параметр ReFrames формата                : 4 кадра
    Идентификатор кодека                     : avc1
    Идентификатор кодека/Информация          : Advanced Video Coding
    Продолжительность                        : 1 ч. 56 м.
    Вид битрейта                             : Переменный
    Битрейт                                  : 10,9 Мбит/сек
    Ширина                                   : 1920 пикселей
    Высота                                   : 1080 пикселей
    Соотношение сторон                       : 16:9
    Режим частоты кадров                     : Переменный
    Частота кадров                           : 23,976 кадра/сек
    Минимальная частота кадров               : 23,810 кадра/сек
    Максимальная частота кадров              : 24,390 кадра/сек
    Цветовое пространство                    : YUV
    Субдискретизация насыщенности            : 4:2:0
    Битовая глубина                          : 8 бит
    Тип развёртки                            : Прогрессивная
    Бит/(Пиксели*Кадры)                      : 0.219
    Размер потока                            : 8,83 Гбайт (91%)
    Библиотека кодирования                   : x264 core 130 r2273 b3065e6
    Настройки программы                      : cabac=1 / ref=4 / deblock=1:-3:-3 / analyse=0x3:0x113 / me=umh / subme=9 / psy=1 / psy_rd=1.00:0.00 / mixed_ref=1 / me_range=32 / chroma_me=1 / trellis=2 / 8x8dct=1 / cqm=0 / deadzone=21,11 / fast_pskip=1 / chroma_qp_offset=-2 / threads=18 / lookahead_threads=1 / sliced_threads=0 / nr=0 / decimate=1 / interlaced=0 / bluray_compat=0 / constrained_intra=0 / bframes=8 / b_pyramid=2 / b_adapt=1 / b_bias=0 / direct=1 / weightb=1 / open_gop=0 / weightp=2 / keyint=240 / keyint_min=24 / scenecut=40 / intra_refresh=0 / rc_lookahead=40 / rc=2pass / mbtree=1 / bitrate=10900 / ratetol=1.0 / qcomp=0.60 / qpmin=0 / qpmax=69 / qpstep=4 / cplxblur=20.0 / qblur=0.5 / vbv_maxrate=25000 / vbv_bufsize=25000 / nal_hrd=none / ip_ratio=1.40 / aq=1:0.80
    Язык                                     : English
    Дата кодирования                         : UTC 2014-11-06 13:16:44
    Дата пометки                             : UTC 2014-11-06 13:20:47
    Основные цвета                           : BT.709-5, BT.1361, IEC 61966-2-4, SMPTE RP177
    Характеристики трансфера                 : BT.709-5, BT.1361
    Коэффициенты матрицы                     : BT.709-5, BT.1361, IEC 61966-2-4 709, SMPTE RP177
    Видео #2
    Идентификатор                            : 10
    Формат                                   : JPEG
    Идентификатор кодека                     : jpeg
    Продолжительность                        : 1 ч. 56 м.
    Вид битрейта                             : Переменный
    Битрейт                                  : 1402 бит/сек
    Ширина                                   : 640 пикселей
    Высота                                   : 360 пикселей
    Соотношение сторон                       : 16:9
    Режим частоты кадров                     : Переменный
    Частота кадров                           : 0,003 кадр/сек
    Минимальная частота кадров               : 0,001 кадр/сек
    Максимальная частота кадров              : 0,007 кадр/сек
    Цветовое пространство                    : YUV
    Субдискретизация насыщенности            : 4:2:0
    Битовая глубина                          : 8 бит
    Метод сжатия                             : С потерями
    Бит/(Пиксели*Кадры)                      : 2.028
    Размер потока                            : 1,11 Мбайт (0%)
    Язык                                     : English
    Дата кодирования                         : UTC 2014-11-06 14:45:14
    Дата пометки                             : UTC 2014-11-06 14:45:15
    Аудио #1
    Идентификатор                            : 2
    Формат                                   : AAC
    Формат/Информация                        : Advanced Audio Codec
    Профиль формата                          : LC
    Идентификатор кодека                     : 40
    Продолжительность                        : 1 ч. 56 м.
    Вид битрейта                             : Переменный
    Битрейт                                  : 160 Кбит/сек
    Максимальный битрейт                     : 165 Кбит/сек
    Каналы                                   : 2 канала
    Расположение каналов                     : Front: L R
    Частота                                  : 48,0 КГц
    Метод сжатия                             : С потерями
    Задержка видео                           : -14 с.
    Размер потока                            : 133 Мбайт (1%)
    Язык                                     : Russian
    Дата кодирования                         : UTC 2014-11-06 14:44:24
    Дата пометки                             : UTC 2014-11-06 14:44:53
    Аудио #2
    Идентификатор                            : 3
    Формат                                   : AAC
    Формат/Информация                        : Advanced Audio Codec
    Профиль формата                          : LC
    Идентификатор кодека                     : 40
    Продолжительность                        : 1 ч. 56 м.
    Вид битрейта                             : Переменный
    Битрейт                                  : 164 Кбит/сек
    Максимальный битрейт                     : 267 Кбит/сек
    Каналы                                   : 2 канала
    Расположение каналов                     : Front: L R
    Частота                                  : 48,0 КГц
    Метод сжатия                             : С потерями
    Задержка видео                           : -14 с.
    Размер потока                            : 136 Мбайт (1%)
    Язык                                     : Russian
    Дата кодирования                         : UTC 2014-11-06 14:44:25
    Дата пометки                             : UTC 2014-11-06 14:44:53
    Аудио #3
    Идентификатор                            : 4
    Формат                                   : AAC
    Формат/Информация                        : Advanced Audio Codec
    Профиль формата                          : LC
    Идентификатор кодека                     : 40
    Продолжительность                        : 1 ч. 56 м.
    Вид битрейта                             : Переменный
    Битрейт                                  : 164 Кбит/сек
    Максимальный битрейт                     : 206 Кбит/сек
    Каналы                                   : 2 канала
    Расположение каналов                     : Front: L R
    Частота                                  : 48,0 КГц
    Метод сжатия                             : С потерями
    Задержка видео                           : -14 с.
    Размер потока                            : 136 Мбайт (1%)
    Язык                                     : Russian
    Дата кодирования                         : UTC 2014-11-06 14:44:25
    Дата пометки                             : UTC 2014-11-06 14:44:55
    Аудио #4
    Идентификатор                            : 5
    Формат                                   : AAC
    Формат/Информация                        : Advanced Audio Codec
    Профиль формата                          : LC
    Идентификатор кодека                     : 40
    Продолжительность                        : 1 ч. 56 м.
    Вид битрейта                             : Переменный
    Битрейт                                  : 164 Кбит/сек
    Максимальный битрейт                     : 278 Кбит/сек
    Каналы                                   : 2 канала
    Расположение каналов                     : Front: L R
    Частота                                  : 48,0 КГц
    Метод сжатия                             : С потерями
    Задержка видео                           : -14 с.
    Размер потока                            : 137 Мбайт (1%)
    Язык                                     : English
    Дата кодирования                         : UTC 2014-11-06 14:44:25
    Дата пометки                             : UTC 2014-11-06 14:44:54
    Аудио #5
    Идентификатор                            : 6
    Формат                                   : AC-3
    Формат/Информация                        : Audio Coding 3
    Расширение режима                        : CM (complete main)
    Параметр Endianness формата              : Big
    Идентификатор кодека                     : ac-3
    Продолжительность                        : 1 ч. 56 м.
    Вид битрейта                             : Постоянный
    Битрейт                                  : 448 Кбит/сек
    Каналы                                   : 6 каналов
    Расположение каналов                     : Front: L C R, Side: L R, LFE
    Частота                                  : 48,0 КГц
    Битовая глубина                          : 16 бит
    Метод сжатия                             : С потерями
    Задержка видео                           : -14 с.
    Размер потока                            : 373 Мбайт (4%)
    Язык                                     : English
    Дата кодирования                         : UTC 2014-11-06 14:44:25
    Дата пометки                             : UTC 2014-11-06 14:44:44
    Текст #1
    Идентификатор                            : 7
    Формат                                   : Timed text
    Режим смешивания                         : sbtl
    Идентификатор кодека                     : tx3g
    Продолжительность                        : 1 ч. 52 м.
    Вид битрейта                             : Переменный
    Битрейт                                  : 107 бит/сек
    Задержка видео                           : -14 с.
    Размер потока                            : 87,9 Кбайт (0%)
    Язык                                     : Russian
    Дата кодирования                         : UTC 2014-11-06 14:44:25
    Дата пометки                             : UTC 2014-11-06 14:44:25
    Текст #2
    Идентификатор                            : 8
    Формат                                   : Timed text
    Режим смешивания                         : sbtl
    Идентификатор кодека                     : tx3g
    Продолжительность                        : 1 ч. 52 м.
    Вид битрейта                             : Переменный
    Битрейт                                  : 60 бит/сек
    Задержка видео                           : -14 с.
    Размер потока                            : 49,0 Кбайт (0%)
    Язык                                     : English
    Дата кодирования                         : UTC 2014-11-06 14:44:25
    Дата пометки                             : UTC 2014-11-06 14:44:25
    Текст #3
    Идентификатор                            : 9
    Формат                                   : Apple text
    Идентификатор кодека                     : text
    Продолжительность                        : 1 ч. 56 м.
    Вид битрейта                             : Переменный
    Битрейт                                  : 1 бит/сек
    Задержка видео                           : -14 с.
    Размер потока                            : 616 байт (0%)
    Язык                                     : English
    Дата кодирования                         : UTC 2014-11-06 14:44:55
    Дата пометки                             : UTC 2014-11-06 14:44:55
    Меню
    00:00:00.000                             : Philadelphia
    00:03:42.013                             : Pork Bellies
    00:06:28.846                             : Duke & Duke
    00:16:00.084                             : Is There a Problem, Officers?
    00:18:41.078                             : The Usual Wager
    00:23:11.306                             : Whiskey, All You Want
    00:28:51.604                             : Billy Ray's Stuff
    00:32:44.671                             : Thief Among Us
    00:39:16.937                             : It Was a Stone Groove, My Man
    00:45:14.086                             : Heroin Dealer
    00:53:56.399                             : A Couple of Bookies
    00:57:49.299                             : Ophelia's Flat
    01:01:00.615                             : Mr. Valentine Sets the Price
    01:06:12.885                             : Fifty Bucks
    01:11:49.805                             : Christmas Eve
    01:23:24.165                             : A Most Absurd Nightmare
    01:27:10.058                             : Merry New Year
    01:38:48.839                             : Fcoj
    01:48:45.727                             : Turn the Machines Back On
    01:51:03.657                             : Looking Good

    x264 лог 720p Release

    x264 [info]: frame I:1757  Avg QP:16.06  size:147750  PSNR Mean Y:47.17 U:50.43 V:51.33 Avg:48.06 Global:47.59
    x264 [info]: frame P:67663 Avg QP:18.88  size: 45949  PSNR Mean Y:44.06 U:48.93 V:49.51 Avg:45.17 Global:44.75
    x264 [info]: frame B:98004 Avg QP:21.89  size:  8327  PSNR Mean Y:43.74 U:49.28 V:49.79 Avg:44.92 Global:44.61
    x264 [info]: consecutive B-frames:  8.3% 33.2% 27.0% 25.6%  5.3%  0.2%  0.2%  0.0%  0.2%
    x264 [info]: mb I  I16..4:  4.1% 57.9% 38.0%
    x264 [info]: mb P  I16..4:  0.5%  4.6%  2.5%  P16..4: 42.7% 29.7% 12.7%  0.0%  0.0%    skip: 7.4%
    x264 [info]: mb B  I16..4:  0.0%  0.3%  0.2%  B16..8: 44.6%  9.3%  1.5%  direct: 3.0%  skip:41.0%  L0:32.5% L1:55.4% BI:12.1%
    x264 [info]: 8x8 transform intra:59.8% inter:46.0%
    x264 [info]: coded y,uvDC,uvAC intra: 92.8% 76.3% 46.6% inter: 25.0% 13.2% 1.7%
    x264 [info]: i16 v,h,dc,p: 47% 16%  7% 29%
    x264 [info]: i8 v,h,dc,ddl,ddr,vr,hd,vl,hu: 10%  8%  3% 11% 16% 15% 14% 12% 10%
    x264 [info]: i4 v,h,dc,ddl,ddr,vr,hd,vl,hu: 10%  7%  2% 11% 18% 17% 14% 11% 10%
    x264 [info]: i8c dc,h,v,p: 48% 18% 23% 11%
    x264 [info]: ref P L0: 78.8% 12.3%  8.9%
    x264 [info]: ref B L0: 90.9%  9.1%
    x264 [info]: SSIM Mean Y:0.9796557 (16.916db)
    x264 [info]: PSNR Mean Y:43.906 U:49.147 V:49.689 Avg:45.058 Global:44.690 kb/s:4794.19

    x264 лог 1080p Release

    x264 [info]: frame I:1787  Avg QP:15.28  size:260823  PSNR Mean Y:48.62 U:51.64 V:52.79 Avg:49.49 Global:49.24
    x264 [info]: frame P:70860 Avg QP:18.34  size: 96162  PSNR Mean Y:45.35 U:49.87 V:50.83 Avg:46.45 Global:46.19
    x264 [info]: frame B:94776 Avg QP:20.55  size: 23191  PSNR Mean Y:44.95 U:50.11 V:50.98 Avg:46.11 Global:45.89
    x264 [info]: consecutive B-frames: 10.6% 34.6% 24.2% 26.6%  3.4%  0.2%  0.2%  0.0%  0.2%
    x264 [info]: mb I  I16..4:  3.1% 89.7%  7.2%
    x264 [info]: mb P  I16..4:  0.7%  8.4%  0.3%  P16..4: 43.3% 30.0% 12.6%  0.0%  0.0%    skip: 4.7%
    x264 [info]: mb B  I16..4:  0.0%  0.4%  0.0%  B16..8: 46.5%  9.4%  2.2%  direct: 4.9%  skip:36.5%  L0:35.0% L1:52.1% BI:12.9%
    x264 [info]: 8x8 transform intra:89.3% inter:68.0%
    x264 [info]: coded y,uvDC,uvAC intra: 90.8% 83.6% 52.0% inter: 37.1% 26.6% 1.9%
    x264 [info]: i16 v,h,dc,p: 55% 14% 10% 21%
    x264 [info]: i8 v,h,dc,ddl,ddr,vr,hd,vl,hu: 13%  9%  6%  9% 14% 13% 13% 11% 13%
    x264 [info]: i4 v,h,dc,ddl,ddr,vr,hd,vl,hu: 14%  9%  3%  9% 15% 15% 13% 11% 11%
    x264 [info]: i8c dc,h,v,p: 42% 25% 20% 13%
    x264 [info]: Weighted P-Frames: Y:1.7% UV:0.4%
    x264 [info]: ref P L0: 59.9% 15.6% 17.0%  5.4%  2.1%  0.0%
    x264 [info]: ref B L0: 90.2%  9.2%  0.7%
    x264 [info]: ref B L1: 96.8%  3.2%
    x264 [info]: SSIM Mean Y:0.9816483 (17.363db)
    x264 [info]: PSNR Mean Y:45.158 U:50.020 V:50.937 Avg:46.291 Global:46.039 kb/s:10858.58

    Скриншоты 720p Release


    Скриншоты 1080p Release


    -

    Релиз подготовлен для просмотра на Apple TV, iPad, iPhone, iPod Touch.
    Для просмотра данного релиза на компьютере с ОС Windows рекомендуется использовать VLC media player
    --
    Скачать .torrent

    Скачать торрент-файл бесплатно и на максимальной скорости!

    Как скачивать? · Что такое торрент? · Рейтинг и ограничения

    !ВНИМАНИЕ!
    Сайт не распространяет и не хранит электронные версии произведений, а занимается лишь лишь предоставлением доступа к создаваемому пользователями каталогу ссылок на торрент-файлы, которые содержат только списки хеш-сумм, убедительная просьба с жалобами обращаться напрямую к пользователю. Файлы для обмена на трекере предоставлены пользователями сайта, и администрация не несёт ответственности за их содержание. Просьба не заливать файлы, защищенные авторскими правами, а также файлы нелегального содержания!


    _________________
    [Профиль] [ЛС]
    Показать сообщения:    
    Ответить на тему

    Текущее время: Сегодня, в 18:12

    Часовой пояс: GMT + 2



    Вы не можете начинать темы
    Вы не можете отвечать на сообщения
    Вы не можете редактировать свои сообщения
    Вы не можете удалять свои сообщения
    Вы не можете голосовать в опросах
    Вы не можете прикреплять файлы к сообщениям
    Вы не можете скачивать файлы