BitTorrentTracker PerecTracker.org
BitTorrentTracker PerecTracker.org
    
Регистрация  ·  Вход
 
 · 
Забыли пароль?

  • [ATV3] Планета обезьян: Революция / Dawn of the Planet of the Apes (Мэтт Ривз / Matt Reeves ) [2014, США, Фантастика, боевик, драма, BDRip, HD (1080p)] DUB + Original + sub (rus for, eng for, rus, eng)

    Ответить на тему
     
    Автор Сообщение

    Flirldrerve

    Создавать темы 27-Окт-2015 05:20

           

    [Цитировать]

    Планета обезьян: Революция / Dawn of the Planet of the Apes
    «Молитесь за мир, готовьтесь к войне»
    7.339 / 10 7.90 / 10
    -Год выпуска: 2014
    Страна: США
    Жанр: Фантастика, боевик, драма
    Продолжительность: 02:10:24
    Перевод: Профессиональный (дублированный) (Лицензия)
    Оригинальная аудиодорожка: Есть
    Cубтитры: Русские форсированные, Английские форсированные, Русские, Английские
    Режиссёр: Мэтт Ривз
    Сценарий: Рик Джаффа, Аманда Сильвер, Марк Бомбэк
    Продюсер: Питер Чернин, Дилан Кларк, Рик Джаффа
    Оператор: Майкл Серезин
    Композитор: Майкл Джаккино
    Художник: Джеймс Чинланд, Мариса Франц, Аарон Хэй
    Монтаж: Уильям Хой, Стэн Сэлфэс
    В ролях: Энди Серкис, Джейсон Кларк, Гари Олдман, Кери Рассел, Тоби Кеббелл, Коди Смит-МакФи, Кирк Асеведо, Ник Тёрстон, Терри Нотари, Карин Коновал
    Бюджет: $170 000 000
    Сборы в США: $208 480 858
    Сборы в мире: + $499 337 392 = $707 818 250
    Сборы в России: $21 080 688
    Мировая премьера: 26 июня 2014
    Премьера (РФ): 17 июля 2014, «Двадцатый Век Фокс СНГ»
    Релиз на DVD: 20 ноября 2014, «Двадцатый Век Фокс СНГ»
    Релиз на Blu-Ray: 20 ноября 2014, «Двадцатый Век Фокс СНГ»
    Описание: Численность генетически модифицированных обезьян, возглавляемых Цезарем, продолжает увеличиваться, но обезьянам угрожают люди, которым удалось выжить во время ужасной эпидемии десятилетней давности. Поначалу между соперниками устанавливается хрупкий мир, но он оказывается недолговечным. Обезьяны и люди находятся на грани войны, в ходе которой станет понятно, кто из них в будущем станет безраздельно править планетой.-Качество исходника: Кинозал, Планета обезьян: Революция / Dawn of the Planet of the Apes / 2014 / ДБ, АП (Есарев), СТ / Blu-Ray Remux (1080p)
    Качество: BDRip
    Тип: HD (1080p)
    Контейнер: M4V
    Видео: H.264, 1920x1040, 1.85:1, 8 000 Kbps, 23.976 fps
    Аудио 1: Русский/Профессиональный (дублированный) (Лицензия), AAC / 2.0 / 159 Kbps / 48.0 KHz
    Аудио 2: Английский/Оригинальная дорожка , AAC / 2.0 / 159 Kbps / 48.0 KHz
    Аудио 3: Русский/Профессиональный (дублированный) (Лицензия), AC-3 / 5.1 / 640 Kbps / 48.0 KHz
    Аудио 4: Английский/Оригинальная дорожка , AC-3 / 5.1 / 640 Kbps / 48.0 KHz
    Субтитры 1: Русские форсированные
    Субтитры 2: Английские форсированные
    Субтитры 3: Русские полные
    Субтитры 4: Английские полные
    -

    iTunes Meta Tags

    Sort Name: Dawn of the Planet of the Apes
    XID: Apple:vendor_id:2014-646674
    contentID: 888194597
    Copyright: © 2014 Twentieth Century Fox Film Corporation. All rights reserved.
    Screenwriters: Рик Джаффа, Аманда Сильвер, Марк Бомбэк
    Producers: Питер Чернин, Дилан Кларк, Рик Джаффа
    Director: Мэтт Ривз
    Cast: Энди Серкис, Джейсон Кларк, Гари Олдман, Кери Рассел, Тоби Кеббелл, Коди Смит-МакФи, Кирк Асеведо, Ник Тёрстон, Терри Нотари, Карин Коновал
    Studio: 20th Century Fox
    Rating: 10
    Long Description: Численность генетически модифицированных обезьян, возглавляемых Цезарем, продолжает увеличиваться, но обезьянам угрожают люди, которым удалось выжить во время ужасной эпидемии десятилетней давности. Поначалу между соперниками устанавливается хрупкий мир, но он оказывается недолговечным. Обезьяны и люди находятся на грани войны, в ходе которой станет понятно, кто из них в будущем станет безраздельно править планетой.
    Description: Численность генетически модифицированных обезьян, возглавляемых Цезарем, продолжает увеличиваться, но обезьянам угрожают люди, которым удалось выжить во время ужасной эпидемии десятилетней давности...
    Release Date: 2014-06-26T08:00:00Z
    Genre: Action & Adventure
    Artist: Matt Reeves
    Name: Dawn of the Planet of the Apes

    MediaInfo

    General
    Complete name                            : /Users/imac/HandBrake/Dawn of the Planet of the Apes (1080p HD).m4v
    Format                                   : MPEG-4
    Codec ID                                 : M4V
    File size                                : 8.75 GiB
    Duration                                 : 2h 10mn
    Overall bit rate mode                    : Variable
    Overall bit rate                         : 9 612 Kbps
    Movie name                               : Dawn of the Planet of the Apes
    Performer                                : Matt Reeves
    Genre                                    : Action & Adventure
    Recorded date                            : UTC 2014-06-26 08:00:00
    Encoded date                             : UTC 2014-11-12 20:26:52
    Tagged date                              : UTC 2014-11-12 20:40:47
    Copyright                                : © 2014 Twentieth Century Fox Film Corporation. All rights reserved.
    Cover                                    : Yes
    sonm                                     : Dawn of the Planet of the Apes
    desc                                     : Численность генетически модифицированных обезьян, возглавляемых Цезарем, продолжает увеличиваться, но обезьянам угрожают люди, которым удалось выжить во время ужасной эпидемии десятилетней давности...
    ldes                                     : Численность генетически модифицированных обезьян, возглавляемых Цезарем, продолжает увеличиваться, но обезьянам угрожают люди, которым удалось выжить во время ужасной эпидемии десятилетней давности. Поначалу между соперниками устанавливается хрупкий мир, но он оказывается недолговечным. Обезьяны и люди находятся на грани войны, в ходе которой станет понятно, кто из них в будущем станет безраздельно править планетой.
    hdvd                                     : 2
    stik                                     : 9
    rtng                                     : 0
    cnID                                     : 888194597
    xid                                      : Apple:vendor_id:2014-646674
    iTunEXTC                                 : mpaa|PG-13|300|
    iTunMOVI                                 : <?xml version=\"1.0\" encoding=\"UTF-8\"?> / <!DOCTYPE plist PUBLIC \"-//Apple//DTD PLIST 1.0//EN\" \"http://anonym.to/?http://www.apple.com/DTDs/PropertyList-1.0.dtd\"> / <plist version=\"1.0\"> / <dict> /  <key>cast</key> /  <array> /   <dict> /    <key>name</key> /    <string>Энди Серкис</string> /   </dict> /   <dict> /    <key>name</key> /    <string>Джейсон Кларк</string> /   </dict> /   <dict> /    <key>name</key> /    <string>Гари Олдман</string> /   </dict> /   <dict> /    <key>name</key> /    <string>Кери Рассел</string> /   </dict> /   <dict> /    <key>name</key> /    <string>Тоби Кеббелл</string> /   </dict> /   <dict> /    <key>name</key> /    <string>Коди Смит-МакФи</string> /   </dict> /   <dict> /    <key>name</key> /    <string>Кирк Асеведо</string> /   </dict> /   <dict> /    <key>name</key> /    <string>Ник Тёрстон</string> /   </dict> /   <dict> /    <key>name</key> /    <string>Терри Нотари</string> /   </dict> /   <dict> /    <key>name</key> /    <string>Карин Коновал</string> /   </dict> /  </array> /  <key>directors</key> /  <array> /   <dict> /    <key>name</key> /    <string>Мэтт Ривз</string> /   </dict> /  </array> /  <key>producers</key> /  <array> /   <dict> /    <key>name</key> /    <string>Питер Чернин</string> /   </dict> /   <dict> /    <key>name</key> /    <string>Дилан Кларк</string> /   </dict> /   <dict> /    <key>name</key> /    <string>Рик Джаффа</string> /   </dict> /  </array> /  <key>screenwriters</key> /  <array> /   <dict> /    <key>name</key> /    <string>Рик Джаффа</string> /   </dict> /   <dict> /    <key>name</key> /    <string>Аманда Сильвер</string> /   </dict> /   <dict> /    <key>name</key> /    <string>Марк Бомбэк</string> /   </dict> /  </array> /  <key>studio</key> /  <string>20th Century Fox</string> / </dict> / </plist>
    Video #1
    ID                                       : 1
    Format                                   : AVC
    Format/Info                              : Advanced Video Codec
    Format profile                           : High@L4.0
    Format settings, CABAC                   : Yes
    Format settings, ReFrames                : 4 frames
    Codec ID                                 : avc1
    Codec ID/Info                            : Advanced Video Coding
    Duration                                 : 2h 10mn
    Bit rate mode                            : Variable
    Bit rate                                 : 8 000 Kbps
    Width                                    : 1 920 pixels
    Height                                   : 1 040 pixels
    Display aspect ratio                     : 1.85:1
    Frame rate mode                          : Variable
    Frame rate                               : 23.976 fps
    Minimum frame rate                       : 23.974 fps
    Maximum frame rate                       : 23.981 fps
    Color space                              : YUV
    Chroma subsampling                       : 4:2:0
    Bit depth                                : 8 bits
    Scan type                                : Progressive
    Bits/(Pixel*Frame)                       : 0.167
    Stream size                              : 7.28 GiB (83%)
    Writing library                          : x264 core 130 r2273 b3065e6
    Encoding settings                        : cabac=1 / ref=4 / deblock=1:0:0 / analyse=0x3:0x133 / me=umh / subme=10 / psy=1 / psy_rd=1.00:0.00 / mixed_ref=1 / me_range=32 / chroma_me=1 / trellis=2 / 8x8dct=1 / cqm=0 / deadzone=21,11 / fast_pskip=1 / chroma_qp_offset=-2 / threads=12 / lookahead_threads=1 / sliced_threads=0 / nr=0 / decimate=1 / interlaced=0 / bluray_compat=0 / constrained_intra=0 / bframes=4 / b_pyramid=2 / b_adapt=2 / b_bias=0 / direct=3 / weightb=1 / open_gop=0 / weightp=2 / keyint=240 / keyint_min=24 / scenecut=40 / intra_refresh=0 / rc_lookahead=40 / rc=2pass / mbtree=0 / bitrate=8000 / ratetol=1.0 / qcomp=0.60 / qpmin=0 / qpmax=69 / qpstep=4 / cplxblur=20.0 / qblur=0.5 / vbv_maxrate=25000 / vbv_bufsize=25000 / nal_hrd=none / ip_ratio=1.40 / pb_ratio=1.30 / aq=1:1.00
    Language                                 : English
    Encoded date                             : UTC 2014-11-12 20:26:53
    Tagged date                              : UTC 2014-11-12 20:31:55
    Color primaries                          : BT.709-5, BT.1361, IEC 61966-2-4, SMPTE RP177
    Transfer characteristics                 : BT.709-5, BT.1361
    Matrix coefficients                      : BT.709-5, BT.1361, IEC 61966-2-4 709, SMPTE RP177
    Video #2
    ID                                       : 11
    Format                                   : JPEG
    Codec ID                                 : jpeg
    Duration                                 : 2h 10mn
    Bit rate mode                            : Variable
    Bit rate                                 : 1 579 bps
    Width                                    : 640 pixels
    Height                                   : 346 pixels
    Display aspect ratio                     : 1.85:1
    Frame rate mode                          : Variable
    Frame rate                               : 0.005 fps
    Minimum frame rate                       : 0.002 fps
    Maximum frame rate                       : 0.016 fps
    Color space                              : YUV
    Chroma subsampling                       : 4:2:0
    Bit depth                                : 8 bits
    Compression mode                         : Lossy
    Bits/(Pixel*Frame)                       : 1.426
    Stream size                              : 1.51 MiB (0%)
    Language                                 : English
    Encoded date                             : UTC 2014-11-12 20:32:14
    Tagged date                              : UTC 2014-11-12 20:32:16
    Audio #1
    ID                                       : 2
    Format                                   : AAC
    Format/Info                              : Advanced Audio Codec
    Format profile                           : LC
    Codec ID                                 : 40
    Duration                                 : 2h 10mn
    Bit rate mode                            : Variable
    Bit rate                                 : 159 Kbps
    Maximum bit rate                         : 255 Kbps
    Channel(s)                               : 2 channels
    Channel positions                        : Front: L R
    Sampling rate                            : 48.0 KHz
    Compression mode                         : Lossy
    Stream size                              : 148 MiB (2%)
    Language                                 : Russian
    Encoded date                             : UTC 2014-11-12 20:26:53
    Tagged date                              : UTC 2014-11-12 20:31:45
    Audio #2
    ID                                       : 3
    Format                                   : AAC
    Format/Info                              : Advanced Audio Codec
    Format profile                           : LC
    Codec ID                                 : 40
    Duration                                 : 2h 10mn
    Bit rate mode                            : Variable
    Bit rate                                 : 159 Kbps
    Maximum bit rate                         : 242 Kbps
    Channel(s)                               : 2 channels
    Channel positions                        : Front: L R
    Sampling rate                            : 48.0 KHz
    Compression mode                         : Lossy
    Stream size                              : 149 MiB (2%)
    Language                                 : English
    Encoded date                             : UTC 2014-11-12 20:26:53
    Tagged date                              : UTC 2014-11-12 20:31:46
    Audio #3
    ID                                       : 4
    Format                                   : AC-3
    Format/Info                              : Audio Coding 3
    Mode extension                           : CM (complete main)
    Format settings, Endianness              : Big
    Codec ID                                 : ac-3
    Duration                                 : 2h 10mn
    Bit rate mode                            : Constant
    Bit rate                                 : 640 Kbps
    Channel(s)                               : 6 channels
    Channel positions                        : Front: L C R, Side: L R, LFE
    Sampling rate                            : 48.0 KHz
    Bit depth                                : 16 bits
    Compression mode                         : Lossy
    Stream size                              : 597 MiB (7%)
    Language                                 : Russian
    Encoded date                             : UTC 2014-11-12 20:26:53
    Tagged date                              : UTC 2014-11-12 20:28:22
    Audio #4
    ID                                       : 5
    Format                                   : AC-3
    Format/Info                              : Audio Coding 3
    Mode extension                           : CM (complete main)
    Format settings, Endianness              : Big
    Codec ID                                 : ac-3
    Duration                                 : 2h 10mn
    Bit rate mode                            : Constant
    Bit rate                                 : 640 Kbps
    Channel(s)                               : 6 channels
    Channel positions                        : Front: L C R, Side: L R, LFE
    Sampling rate                            : 48.0 KHz
    Bit depth                                : 16 bits
    Compression mode                         : Lossy
    Stream size                              : 597 MiB (7%)
    Language                                 : English
    Encoded date                             : UTC 2014-11-12 20:26:53
    Tagged date                              : UTC 2014-11-12 20:28:20
    Text #1
    ID                                       : 6
    Format                                   : Timed text
    Muxing mode                              : sbtl
    Codec ID                                 : tx3g
    Duration                                 : 1h 44mn
    Bit rate mode                            : Variable
    Bit rate                                 : 7 bps
    Stream size                              : 5.41 KiB (0%)
    Language                                 : Russian
    Encoded date                             : UTC 2014-11-12 20:26:53
    Tagged date                              : UTC 2014-11-12 20:27:33
    Text #2
    ID                                       : 7
    Format                                   : Timed text
    Muxing mode                              : sbtl
    Codec ID                                 : tx3g
    Duration                                 : 1h 44mn
    Bit rate mode                            : Variable
    Bit rate                                 : 4 bps
    Stream size                              : 3.21 KiB (0%)
    Language                                 : English
    Encoded date                             : UTC 2014-11-12 20:26:53
    Tagged date                              : UTC 2014-11-12 20:27:33
    Text #3
    ID                                       : 8
    Format                                   : Timed text
    Muxing mode                              : sbtl
    Codec ID                                 : tx3g
    Duration                                 : 1h 58mn
    Bit rate mode                            : Variable
    Bit rate                                 : 43 bps
    Stream size                              : 37.7 KiB (0%)
    Language                                 : Russian
    Encoded date                             : UTC 2014-11-12 20:26:53
    Tagged date                              : UTC 2014-11-12 20:27:37
    Text #4
    ID                                       : 9
    Format                                   : Timed text
    Muxing mode                              : sbtl
    Codec ID                                 : tx3g
    Duration                                 : 1h 58mn
    Bit rate mode                            : Variable
    Bit rate                                 : 27 bps
    Stream size                              : 23.4 KiB (0%)
    Language                                 : English
    Encoded date                             : UTC 2014-11-12 20:26:53
    Tagged date                              : UTC 2014-11-12 20:27:37
    Text #5
    ID                                       : 10
    Format                                   : Apple text
    Codec ID                                 : text
    Duration                                 : 2h 10mn
    Bit rate mode                            : Variable
    Bit rate                                 : 1 bps
    Stream size                              : 951 Bytes (0%)
    Language                                 : English
    Encoded date                             : UTC 2014-11-12 20:31:55
    Tagged date                              : UTC 2014-11-12 20:31:55
    Menu
    00:00:00.000                             : Chapter 1
    00:03:21.259                             : Chapter 2
    00:07:35.012                             : Chapter 3
    00:12:36.646                             : Chapter 4
    00:16:23.664                             : Chapter 5
    00:18:47.140                             : Chapter 6
    00:21:52.575                             : Chapter 7
    00:25:26.789                             : Chapter 8
    00:29:45.964                             : Chapter 9
    00:31:50.713                             : Chapter 10
    00:36:43.839                             : Chapter 11
    00:39:07.649                             : Chapter 12
    00:40:57.258                             : Chapter 13
    00:44:12.327                             : Chapter 14
    00:48:10.773                             : Chapter 15
    00:50:31.622                             : Chapter 16
    00:53:48.109                             : Chapter 17
    00:57:25.409                             : Chapter 18
    01:01:18.558                             : Chapter 19
    01:02:35.468                             : Chapter 20
    01:04:24.159                             : Chapter 21
    01:06:21.818                             : Chapter 22
    01:09:31.424                             : Chapter 23
    01:13:57.064                             : Chapter 24
    01:17:18.014                             : Chapter 25
    01:20:53.479                             : Chapter 26
    01:23:28.842                             : Chapter 27
    01:26:09.085                             : Chapter 28
    01:28:19.340                             : Chapter 29
    01:33:24.478                             : Chapter 30
    01:35:53.209                             : Chapter 31
    01:38:38.707                             : Chapter 32
    01:40:42.622                             : Chapter 33
    01:44:06.951                             : Chapter 34
    01:46:04.610                             : Chapter 35
    01:47:54.553                             : Chapter 36
    01:52:13.061                             : Chapter 37
    01:56:27.565                             : Chapter 38
    02:00:31.099                             : Chapter 39
    02:01:34.620                             : Chapter 40

    x264 лог

    x264 [info]: frame I:1323  Avg QP:15.88  size:243578  PSNR Mean Y:47.72 U:51.34 V:51.11 Avg:48.59 Global:47.79
    x264 [info]: frame P:49457 Avg QP:18.14  size: 77213  PSNR Mean Y:46.06 U:49.07 V:48.81 Avg:46.79 Global:45.83
    x264 [info]: frame B:136814 Avg QP:19.83  size: 26877  PSNR Mean Y:45.08 U:48.50 V:48.17 Avg:45.89 Global:44.86
    x264 [info]: consecutive B-frames:  2.2%  6.9%  8.9% 40.7% 41.3%
    x264 [info]: mb I  I16..4:  6.0% 87.0%  7.0%
    x264 [info]: mb P  I16..4:  0.9%  6.9%  0.4%  P16..4: 44.9% 23.6% 13.3%  0.2%  0.0%    skip: 9.6%
    x264 [info]: mb B  I16..4:  0.1%  0.4%  0.0%  B16..8: 48.4%  8.5%  1.8%  direct: 5.6%  skip:35.3%  L0:44.6% L1:49.0% BI: 6.5%
    x264 [info]: 8x8 transform intra:83.5% inter:62.6%
    x264 [info]: direct mvs  spatial:97.9% temporal:2.1%
    x264 [info]: coded y,uvDC,uvAC intra: 89.1% 86.7% 65.4% inter: 29.7% 29.5% 5.1%
    x264 [info]: i16 v,h,dc,p: 38% 19%  9% 35%
    x264 [info]: i8 v,h,dc,ddl,ddr,vr,hd,vl,hu:  7%  6%  6% 12% 16% 15% 14% 12% 12%
    x264 [info]: i4 v,h,dc,ddl,ddr,vr,hd,vl,hu:  7%  8%  3% 10% 16% 15% 15% 12% 14%
    x264 [info]: i8c dc,h,v,p: 51% 18% 17% 15%
    x264 [info]: Weighted P-Frames: Y:4.3% UV:2.0%
    x264 [info]: ref P L0: 49.2%  9.2% 27.8% 12.0%  1.7%  0.1%
    x264 [info]: ref B L0: 82.9% 13.5%  3.6%
    x264 [info]: ref B L1: 92.1%  7.9%
    x264 [info]: SSIM Mean Y:0.9741658 (15.878db)
    x264 [info]: PSNR Mean Y:45.356 U:48.669 V:48.357 Avg:46.145 Global:45.107 kb/s:7993.71

    Скриншоты

    -

    Релиз подготовлен для просмотра на Apple TV, iPad, iPhone, iPod Touch.
    Для просмотра данного релиза на компьютере с ОС Windows рекомендуется использовать VLC media player
    Скачать .torrent

    Скачать торрент-файл бесплатно и на максимальной скорости!

    Как скачивать? · Что такое торрент? · Рейтинг и ограничения

    !ВНИМАНИЕ!
    Сайт не распространяет и не хранит электронные версии произведений, а занимается лишь лишь предоставлением доступа к создаваемому пользователями каталогу ссылок на торрент-файлы, которые содержат только списки хеш-сумм, убедительная просьба с жалобами обращаться напрямую к пользователю. Файлы для обмена на трекере предоставлены пользователями сайта, и администрация не несёт ответственности за их содержание. Просьба не заливать файлы, защищенные авторскими правами, а также файлы нелегального содержания!


    _________________
    [Профиль] [ЛС]
    Показать сообщения:    
    Ответить на тему

    Текущее время: Сегодня, в 23:15

    Часовой пояс: GMT + 2



    Вы не можете начинать темы
    Вы не можете отвечать на сообщения
    Вы не можете редактировать свои сообщения
    Вы не можете удалять свои сообщения
    Вы не можете голосовать в опросах
    Вы не можете прикреплять файлы к сообщениям
    Вы не можете скачивать файлы