BitTorrentTracker PerecTracker.org
BitTorrentTracker PerecTracker.org
    
Регистрация  ·  Вход
 
 · 
Забыли пароль?

  • Большая игра / State of Play (Кевин МакДональд) [2009, США, Великобритания, Франция, драма, детектив, BDRip HD (720p), SD] DUB, Original + SUB (rus, ukr, eng, dat, dut, fin, ger, nor, por, spa, swe)

    Ответить на тему
     
    Автор Сообщение

    Flirldrerve

    Создавать темы 27-Окт-2015 05:20

           

    [Цитировать]

    Большая игра / State of Play
    "Find The Truth"
    7.251 / 10
    -Год выпуска: 2009
    Страна: США, Великобритания, Франция
    Жанр: драма, детектив
    Продолжительность: 127 мин.
    Перевод: Профессиональный дублированный перевод
    Оригинальная аудиодорожка: Есть
    Cубтитры: Русские форсированные, русские полные, украинские форсированные, украинские полные, английские полные SDH, датские полные, голландские полные, финские полные, немецкие полные, норвежские полные, португальские полные, испанские полные и шведские полные
    Режиссёр: Кевин МакДональд
    Сценарий: Мэттью Майкл Карнахан, Тони Гилрой, Билли Рэй
    Продюсер: Тим Беван, Эрик Феллнер, Эндрю Хауптман
    Оператор: Родриго Прието
    Композитор: Алекс Хеффес
    Художник: Марк Фридберг, Грегори С. Хупер, Ричард Л. Джонсон
    Монтаж: Джастин Райт
    В ролях: Рассел Кроу, Бен Аффлек, Рэйчел МакАдамс, Хелен Миррен, Робин Райт, Джейсон Бейтман, Джефф Дэниелс, Майкл Беррессе, Гарри Дж. Ленникс, Джош Мостел
    Роли дублировали: Денис Беспалый, Василий Дахненко, Наталья Фищук, Любовь Германова, Елена Соловьева
    Бюджет: $60 000 000
    Сборы в США: $37 017 955
    Сборы в мире: + $50 794 416 = $87 812 371
    Сборы в России: $434 858
    Мировая премьера: 17 апреля 2009
    Премьера (РФ): 18 июня 2009, UPI
    Релиз на Blu-Ray: 22 сентября 2009, Юниверсал Пикчерс Рус
    Релиз на DVD: 22 сентября 2009, Юниверсал Пикчерс Рус
    Описание: Американский журналист Маккэффри расследует серию жестоких убийств. Одной из жертв становится любовница преуспевающего конгрессмена Коллинза, давнего друга Маккэффри. Улики открывают перед журналистом цепочку чудовищных заговоров, ведущих в высшие политические круги страны. Люди, с которыми ему придется иметь дело, ворочают миллиардами долларов и не привыкли, когда в их дела вмешиваются посторонние.-Качество исходника: Blu-Ray 1080p (HDClub: Большая игра / State of Play (2009) Blu-ray CEE 1080p VC-1 DTS 5.1-d69a74)
    Качество: BDRip
    Тип: 480p 720p
    Контейнер: m4v
    Видео: 640x362 анаморф 852x362 at 23.976 fps, MPEG-4 AVC, 1600 kbps avg
    Видео: 1280x544 at 23.976 fps, MPEG-4 AVC, 6000 kbps avg
    Аудио#1: Russian: 48 kHz, ААС, 2/0 (L,R), ~128.00 / 192.00 kbps avg |Дубляж, Blu-Ray CEE|
    Аудио#2: English: 48 kHz, ААС, 2/0 (L,R), ~128.00 / 192.00 kbps avg
    Аудио#3: Russian: 48 kHz, AC3, 3/2 (L,C,R,l,r) + LFE ch, ~640.00 kbps avg |Дубляж, Blu-Ray CEE|
    Аудио#4: English: 48 kHz, AC3, 3/2 (L,C,R,l,r) + LFE ch, ~640.00 kbps avg
    Субтитры №1: Russian: |Форсрованные|
    Субтитры №2: Ukrainian: |Форсрованные|
    Субтитры №3: Russian: |Полные|
    Субтитры №4: Ukrainian: |Полные|
    Субтитры №5: English: |Полные, SDH|
    Субтитры №6: Danish: |Полные|
    Субтитры №7: Dutch: |Полные|
    Субтитры №8: Finnish: |Полные|
    Субтитры №9: German: |Полные|
    Субтитры №10: Norwegian: |Полные|
    Субтитры №11: Portuguese: |Полные|
    Субтитры №12: Spanish: |Полные|
    Субтитры №13: Swedish: |Полные|-

    Знаете ли Вы, что...
  • В начальных сценах фильма звучит песня «The Night That Paddy Murphy Dies» группы Great Big Sea. Вокалист Great Big Sea Алан Дойл и Рассел Кроу являются хорошими друзьями.
  • Рассел Кроу перед тем как подписать контракт, показал сценарий Ридли Скотту, чтобы вместе с ним решить, стоит ли ему сниматься в этом фильме.
  • После ухода Питта и до того, как в проект попал Рассел Кроу, на роль Кэла МакАфри рассматривались Джонни Депп, Николас Кейдж и Том Хэнкс.
  • Фильм должен был воссоединить главных актеров «Бойцовского клуба» (1999) Эдварда Нортона и Брэда Питта. Однако Питт покинул проект из-за забастовки сценаристов, он был заменен Расселом Кроу. Уход Питта задержал старт съемок и участие Эдварда Нортона в картине стало невозможным, так как начиналась работа над лентой «Травка» (2009). Место Нортона занял Бен Аффлек.
  • На ранних стадиях разработки режиссером фильма значился Эдвард Цвик.
  • Сцены в больнице в конце фильма были сняты в штабе Департамента жилищного строительства и городского развития США.
  • Режиссерами «Большой игры» могли стать Брайан Де Пальма, Мартин Кэмпбелл, Энг Ли, Ричард Линклейтер и Джим Джармуш.
  • Все сцены с Хелен Миррен были отсняты за 4 дня.
  • На стене в кабинете МакАфри можно заметить фотографию настоящих репортеров Washington Post Боба Вудворда и Карла Бернстина, сыгравших главную роль в освещении знаменитого уотергейтского скандала.
    -

    iTunes Meta Tags for country ru

    Name: Большая Игра
    Artist: Kevin MacDonald
    Genre: Drama
    Release Date: 2009-04-17T08:00:00Z
    Description: Американский журналист Маккэффри расследует серию жестоких убийств. Одной из жертв становится любовница преуспевающего конгрессмена Коллинза, давнего друга Маккэффри. Улики открывают перед журналистом цепочку чудовищных заговоров, ведущих в высшие политические круги страны...
    Long Description: Американский журналист Маккэффри расследует серию жестоких убийств. Одной из жертв становится любовница преуспевающего конгрессмена Коллинза, давнего друга Маккэффри. Улики открывают перед журналистом цепочку чудовищных заговоров, ведущих в высшие политические круги страны. Люди, с которыми ему придется иметь дело, ворочают миллиардами долларов и не привыкли, когда в их дела вмешиваются посторонние.
    Rating: 16+
    Studio: Universal Pictures
    Cast: Рассел Кроу, Бен Аффлек, Рэйчел МакАдамс, Хелен Миррен, Робин Райт, Джейсон Бейтман, Джефф Дэниелс, Майкл Беррессе, Гарри Дж. Ленникс, Джош Мостел
    Director: Кевин МакДональд
    Producers: Тим Беван, Эрик Феллнер, Эндрю Хауптман
    Screenwriters: Мэттью Майкл Карнахан, Тони Гилрой, Билли Рэй
    Copyright: © 2009 Universal Studios. All Rights Reserved.
    contentID: 617561223
    XID: Apple:vendor_id:2009-261635
    Sort Name: Большая Игра

    iTunes Meta Tags for country us

    Name: State of Play
    Artist: Kevin MacDonald
    Genre: Thriller
    Release Date: 2009-04-17T08:00:00Z
    Description: Американский журналист Маккэффри расследует серию жестоких убийств. Одной из жертв становится любовница преуспевающего конгрессмена Коллинза, давнего друга Маккэффри. Улики открывают перед журналистом цепочку чудовищных заговоров, ведущих в высшие политические круги страны...
    Long Description: Американский журналист Маккэффри расследует серию жестоких убийств. Одной из жертв становится любовница преуспевающего конгрессмена Коллинза, давнего друга Маккэффри. Улики открывают перед журналистом цепочку чудовищных заговоров, ведущих в высшие политические круги страны. Люди, с которыми ему придется иметь дело, ворочают миллиардами долларов и не привыкли, когда в их дела вмешиваются посторонние.
    Rating: PG-13
    Rating Annotation: Rated PG-13 for some violence, language including sexual references, and brief drug content.
    Studio: Universal Pictures
    Cast: Рассел Кроу, Бен Аффлек, Рэйчел МакАдамс, Хелен Миррен, Робин Райт, Джейсон Бейтман, Джефф Дэниелс, Майкл Беррессе, Гарри Дж. Ленникс, Джош Мостел
    Director: Кевин МакДональд
    Producers: Тим Беван, Эрик Феллнер, Эндрю Хауптман
    Screenwriters: Мэттью Майкл Карнахан, Тони Гилрой, Билли Рэй
    Copyright: © 2009 Universal Studios. All Rights Reserved.
    contentID: 319783565
    XID: Apple:vendor_id:2009-261635
    Sort Name: State of Play

    MediaInfo 480p Release

    General
    Complete name : State of Play.m4v
    Format : MPEG-4
    Codec ID : M4V
    File size : 1.66 GiB
    Duration : 2h 7mn
    Overall bit rate mode : Variable
    Overall bit rate : 1 872 Kbps
    Movie name : State of Play
    Performer : Kevin MacDonald
    Genre : Thriller
    ContentType : Short Film
    Description : Американский журналист Маккэффри расследует серию жестоких убийств. Одной из жертв становится любовница преуспевающего конгрессмена Коллинза, давнего друга Маккэффри. Улики открывают перед журналистом цепочку чудовищных заговоров, ведущих в высшие политические круги страны...
    Recorded date : UTC 2009-04-17 08:00:00
    Encoded date : UTC 2014-11-21 08:57:14
    Tagged date : UTC 2014-11-21 09:08:17
    Copyright : © 2009 Universal Studios. All Rights Reserved.
    Cover : Yes
    Rating : None
    Title/Sort : State of Play
    LongDescription : Американский журналист Маккэффри расследует серию жестоких убийств. Одной из жертв становится любовница преуспевающего конгрессмена Коллинза, давнего друга Маккэффри. Улики открывают перед журналистом цепочку чудовищных заговоров, ведущих в высшие политические круги страны. Люди, с которыми ему придется иметь дело, ворочают миллиардами долларов и не привыкли, когда в их дела вмешиваются посторонние.
    AppleStoreCatalogID : 319783565
    Vendor : Apple:vendor_id:2009-261635
    ContentRating : mpaa|PG-13|300|Rated PG-13 for some violence, language including sexual references, and brief drug content.
    iTunMOVI : <?xml version="1.0" encoding="UTF-8"?> / <!DOCTYPE plist PUBLIC "-//Apple//DTD PLIST 1.0//EN" "http://anonym.to/?http://www.apple.com/DTDs/PropertyList-1.0.dtd"> / <plist version="1.0"> / <dict> /  <key>cast</key> /  <array> /   <dict> /    <key>name</key> /    <string>Рассел Кроу</string> /   </dict> /   <dict> /    <key>name</key> /    <string>Бен Аффлек</string> /   </dict> /   <dict> /    <key>name</key> /    <string>Рэйчел МакАдамс</string> /   </dict> /   <dict> /    <key>name</key> /    <string>Хелен Миррен</string> /   </dict> /   <dict> /    <key>name</key> /    <string>Робин Райт</string> /   </dict> /   <dict> /    <key>name</key> /    <string>Джейсон Бейтман</string> /   </dict> /   <dict> /    <key>name</key> /    <string>Джефф Дэниелс</string> /   </dict> /   <dict> /    <key>name</key> /    <string>Майкл Беррессе</string> /   </dict> /   <dict> /    <key>name</key> /    <string>Гарри Дж. Ленникс</string> /   </dict> /   <dict> /    <key>name</key> /    <string>Джош Мостел</string> /   </dict> /  </array> /  <key>directors</key> /  <array> /   <dict> /    <key>name</key> /    <string>Кевин МакДональд</string> /   </dict> /  </array> /  <key>producers</key> /  <array> /   <dict> /    <key>name</key> /    <string>Тим Беван</string> /   </dict> /   <dict> /    <key>name</key> /    <string>Эрик Феллнер</string> /   </dict> /   <dict> /    <key>name</key> /    <string>Эндрю Хауптман</string> /   </dict> /  </array> /  <key>screenwriters</key> /  <array> /   <dict> /    <key>name</key> /    <string>Мэттью Майкл Карнахан</string> /   </dict> /   <dict> /    <key>name</key> /    <string>Тони Гилрой</string> /   </dict> /   <dict> /    <key>name</key> /    <string>Билли Рэй</string> /   </dict> /  </array> /  <key>studio</key> /  <string>Universal Pictures</string> / </dict> / </plist>
    Video #1
    ID : 1
    Format : AVC
    Format/Info : Advanced Video Codec
    Format profile : Baseline@L3.0
    Format settings, CABAC : No
    Format settings, ReFrames : 2 frames
    Codec ID : avc1
    Codec ID/Info : Advanced Video Coding
    Duration : 2h 7mn
    Bit rate : 1 600 Kbps
    Width : 640 pixels
    Height : 362 pixels
    Display aspect ratio : 2.35:1
    Original display aspect ratio : 2.35:1
    Frame rate mode : Variable
    Frame rate : 23.976 fps
    Minimum frame rate : 23.810 fps
    Maximum frame rate : 24.390 fps
    Color space : YUV
    Chroma subsampling : 4:2:0
    Bit depth : 8 bits
    Scan type : Progressive
    Bits/(Pixel*Frame) : 0.288
    Stream size : 1.42 GiB (85%)
    Writing library : x264 core 130 r2273 b3065e6
    Encoding settings : cabac=0 / ref=2 / deblock=1:0:0 / analyse=0x1:0x111 / me=umh / subme=6 / psy=1 / psy_rd=1.00:0.00 / mixed_ref=1 / me_range=16 / chroma_me=1 / trellis=0 / 8x8dct=0 / cqm=0 / deadzone=21,11 / fast_pskip=1 / chroma_qp_offset=-2 / threads=18 / lookahead_threads=2 / sliced_threads=0 / nr=0 / decimate=1 / interlaced=0 / bluray_compat=0 / constrained_intra=0 / bframes=0 / weightp=0 / keyint=240 / keyint_min=24 / scenecut=40 / intra_refresh=0 / rc_lookahead=40 / rc=2pass / mbtree=1 / bitrate=1600 / ratetol=1.0 / qcomp=0.60 / qpmin=0 / qpmax=69 / qpstep=4 / cplxblur=20.0 / qblur=0.5 / vbv_maxrate=5000 / vbv_bufsize=5000 / nal_hrd=none / ip_ratio=1.40 / aq=1:1.00
    Language : English
    Encoded date : UTC 2014-11-21 08:57:14
    Tagged date : UTC 2014-11-21 08:58:40
    Color primaries : BT.709
    Transfer characteristics : BT.709
    Matrix coefficients : BT.709
    Video #2
    ID : 18
    Format : JPEG
    Codec ID : jpeg
    Duration : 2h 7mn
    Bit rate mode : Variable
    Bit rate : 740 bps
    Width : 640 pixels
    Height : 271 pixels
    Display aspect ratio : 2.35:1
    Frame rate mode : Variable
    Frame rate : 0.003 fps
    Minimum frame rate : 0.001 fps
    Maximum frame rate : 0.005 fps
    Color space : YUV
    Chroma subsampling : 4:2:0
    Bit depth : 8 bits
    Compression mode : Lossy
    Bits/(Pixel*Frame) : 1.422
    Stream size : 602 KiB (0%)
    Language : English
    Encoded date : UTC 2014-11-21 09:06:21
    Tagged date : UTC 2014-11-21 09:06:22
    Audio #1
    ID : 2
    Format : AAC
    Format/Info : Advanced Audio Codec
    Format profile : LC
    Codec ID : 40
    Duration : 2h 7mn
    Bit rate mode : Variable
    Bit rate : 132 Kbps
    Maximum bit rate : 222 Kbps
    Channel(s) : 2 channels
    Channel positions : Front: L R
    Sampling rate : 48.0 KHz
    Compression mode : Lossy
    Stream size : 120 MiB (7%)
    Language : Russian
    Encoded date : UTC 2014-11-21 08:57:14
    Tagged date : UTC 2014-11-21 08:59:00
    Audio #2
    ID : 3
    Format : AAC
    Format/Info : Advanced Audio Codec
    Format profile : LC
    Codec ID : 40
    Duration : 2h 7mn
    Bit rate mode : Variable
    Bit rate : 132 Kbps
    Maximum bit rate : 224 Kbps
    Channel(s) : 2 channels
    Channel positions : Front: L R
    Sampling rate : 48.0 KHz
    Compression mode : Lossy
    Stream size : 120 MiB (7%)
    Language : English
    Encoded date : UTC 2014-11-21 08:57:14
    Tagged date : UTC 2014-11-21 08:59:00
    Text #1
    ID : 4
    Format : Timed Text
    Muxing mode : sbtl
    Codec ID : tx3g
    Duration : 1h 58mn
    Bit rate mode : Variable
    Bit rate : 2 bps
    Stream size : 1.30 KiB (0%)
    Language : Russian
    Encoded date : UTC 2014-11-21 09:06:17
    Tagged date : UTC 2014-11-21 09:06:17
    Text #2
    ID : 5
    Format : Timed Text
    Muxing mode : sbtl
    Codec ID : tx3g
    Duration : 1h 58mn
    Bit rate mode : Variable
    Bit rate : 2 bps
    Stream size : 1.39 KiB (0%)
    Language : Ukrainian
    Encoded date : UTC 2014-11-21 09:06:17
    Tagged date : UTC 2014-11-21 09:06:17
    Text #3
    ID : 6
    Format : Timed Text
    Muxing mode : sbtl
    Codec ID : tx3g
    Duration : 1h 58mn
    Bit rate mode : Variable
    Bit rate : 126 bps
    Stream size : 109 KiB (0%)
    Language : Russian
    Encoded date : UTC 2014-11-21 09:06:17
    Tagged date : UTC 2014-11-21 09:06:18
    Text #4
    ID : 7
    Format : Timed Text
    Muxing mode : sbtl
    Codec ID : tx3g
    Duration : 1h 58mn
    Bit rate mode : Variable
    Bit rate : 128 bps
    Stream size : 111 KiB (0%)
    Language : Ukrainian
    Encoded date : UTC 2014-11-21 09:06:17
    Tagged date : UTC 2014-11-21 09:06:18
    Text #5
    ID : 8
    Format : Timed Text
    Muxing mode : sbtl
    Codec ID : tx3g
    Duration : 2h 0mn
    Bit rate mode : Variable
    Bit rate : 82 bps
    Stream size : 72.6 KiB (0%)
    Language : English
    Encoded date : UTC 2014-11-21 09:06:17
    Tagged date : UTC 2014-11-21 09:06:18
    Text #6
    ID : 9
    Format : Timed Text
    Muxing mode : sbtl
    Codec ID : tx3g
    Duration : 1h 58mn
    Bit rate mode : Variable
    Bit rate : 66 bps
    Stream size : 57.5 KiB (0%)
    Language : Danish
    Encoded date : UTC 2014-11-21 09:06:17
    Tagged date : UTC 2014-11-21 09:06:18
    Text #7
    ID : 10
    Format : Timed Text
    Muxing mode : sbtl
    Codec ID : tx3g
    Duration : 1h 58mn
    Bit rate mode : Variable
    Bit rate : 61 bps
    Stream size : 52.9 KiB (0%)
    Language : Dutch
    Encoded date : UTC 2014-11-21 09:06:17
    Tagged date : UTC 2014-11-21 09:06:18
    Text #8
    ID : 11
    Format : Timed Text
    Muxing mode : sbtl
    Codec ID : tx3g
    Duration : 1h 58mn
    Bit rate mode : Variable
    Bit rate : 59 bps
    Stream size : 51.3 KiB (0%)
    Language : Finnish
    Encoded date : UTC 2014-11-21 09:06:17
    Tagged date : UTC 2014-11-21 09:06:18
    Text #9
    ID : 12
    Format : Timed Text
    Muxing mode : sbtl
    Codec ID : tx3g
    Duration : 1h 58mn
    Bit rate mode : Variable
    Bit rate : 87 bps
    Stream size : 75.3 KiB (0%)
    Language : German
    Encoded date : UTC 2014-11-21 09:06:17
    Tagged date : UTC 2014-11-21 09:06:18
    Text #10
    ID : 13
    Format : Timed Text
    Muxing mode : sbtl
    Codec ID : tx3g
    Duration : 1h 58mn
    Bit rate mode : Variable
    Bit rate : 70 bps
    Stream size : 60.5 KiB (0%)
    Language : Norwegian
    Encoded date : UTC 2014-11-21 09:06:17
    Tagged date : UTC 2014-11-21 09:06:18
    Text #11
    ID : 14
    Format : Timed Text
    Muxing mode : sbtl
    Codec ID : tx3g
    Duration : 2h 0mn
    Bit rate mode : Variable
    Bit rate : 70 bps
    Stream size : 62.4 KiB (0%)
    Language : Portuguese
    Encoded date : UTC 2014-11-21 09:06:17
    Tagged date : UTC 2014-11-21 09:06:18
    Text #12
    ID : 15
    Format : Timed Text
    Muxing mode : sbtl
    Codec ID : tx3g
    Duration : 1h 58mn
    Bit rate mode : Variable
    Bit rate : 81 bps
    Stream size : 70.7 KiB (0%)
    Language : Spanish
    Encoded date : UTC 2014-11-21 09:06:17
    Tagged date : UTC 2014-11-21 09:06:18
    Text #13
    ID : 16
    Format : Timed Text
    Muxing mode : sbtl
    Codec ID : tx3g
    Duration : 1h 58mn
    Bit rate mode : Variable
    Bit rate : 71 bps
    Stream size : 61.3 KiB (0%)
    Language : Swedish
    Encoded date : UTC 2014-11-21 09:06:17
    Tagged date : UTC 2014-11-21 09:06:18
    Menu #1
    00:00:00.000 : 1. Investigative reporting
    00:05:41.174 : 2. Congressional hearing
    00:09:03.876 : 3. Breaking news
    00:15:13.203 : 4. Plausible alternative
    00:20:05.913 : 5. Gathering facts
    00:28:58.194 : 6. Substantiating evidence
    00:34:41.245 : 7. Military connection
    00:41:52.927 : 8. A couple of questions
    00:46:08.557 : 9. Blood on your hands
    00:51:40.972 : 10. Digging deeper
    00:56:24.506 : 11. Inside information
    01:01:44.492 : 12. Just a source
    01:07:09.233 : 13. Lethal lead
    01:13:19.561 : 14. Going to press
    01:18:48.432 : 15. Working the slant
    01:27:52.892 : 16. The other side
    01:34:41.384 : 17. Corporate cover-up
    01:38:15.431 : 18. For the record
    01:45:51.053 : 19. Truth be told
    01:58:02.533 : 20. End titles
    Menu #2
    ID : 17
    Codec ID : text
    Duration : 2h 7mn
    Language : English
    Encoded date : UTC 2014-11-21 09:06:18
    Tagged date : UTC 2014-11-21 09:06:18
    00:00:00.000 : 1. Investigative reporting
    00:05:41.174 : 2. Congressional hearing
    00:09:03.876 : 3. Breaking news
    00:15:13.203 : 4. Plausible alternative
    00:20:05.913 : 5. Gathering facts
    00:28:58.194 : 6. Substantiating evidence
    00:34:41.245 : 7. Military connection
    00:41:52.927 : 8. A couple of questions
    00:46:08.557 : 9. Blood on your hands
    00:51:40.972 : 10. Digging deeper
    00:56:24.506 : 11. Inside information
    01:01:44.492 : 12. Just a source
    01:07:09.233 : 13. Lethal lead
    01:13:19.561 : 14. Going to press
    01:18:48.432 : 15. Working the slant
    01:27:52.892 : 16. The other side
    01:34:41.384 : 17. Corporate cover-up
    01:38:15.431 : 18. For the record
    01:45:51.053 : 19. Truth be told
    01:58:02.533 : 20. End titles
    Bit rate mode : VBR

    MediaInfo 720p Release

    General
    Complete name : State of Play (HD).m4v
    Format : MPEG-4
    Codec ID : M4V
    File size : 6.82 GiB
    Duration : 2h 7mn
    Overall bit rate mode : Variable
    Overall bit rate : 7 686 Kbps
    Movie name : State of Play
    Performer : Kevin MacDonald
    Genre : Thriller
    ContentType : Short Film
    Description : Американский журналист Маккэффри расследует серию жестоких убийств. Одной из жертв становится любовница преуспевающего конгрессмена Коллинза, давнего друга Маккэффри. Улики открывают перед журналистом цепочку чудовищных заговоров, ведущих в высшие политические круги страны...
    Recorded date : UTC 2009-04-17 08:00:00
    Encoded date : UTC 2014-11-21 07:12:59
    Tagged date : UTC 2014-11-21 08:27:31
    Copyright : © 2009 Universal Studios. All Rights Reserved.
    Cover : Yes
    Rating : None
    Title/Sort : State of Play
    LongDescription : Американский журналист Маккэффри расследует серию жестоких убийств. Одной из жертв становится любовница преуспевающего конгрессмена Коллинза, давнего друга Маккэффри. Улики открывают перед журналистом цепочку чудовищных заговоров, ведущих в высшие политические круги страны. Люди, с которыми ему придется иметь дело, ворочают миллиардами долларов и не привыкли, когда в их дела вмешиваются посторонние.
    HDVideo : Yes
    AppleStoreCatalogID : 319783565
    Vendor : Apple:vendor_id:2009-261635
    ContentRating : mpaa|PG-13|300|Rated PG-13 for some violence, language including sexual references, and brief drug content.
    iTunMOVI : <?xml version="1.0" encoding="UTF-8"?> / <!DOCTYPE plist PUBLIC "-//Apple//DTD PLIST 1.0//EN" "http://anonym.to/?http://www.apple.com/DTDs/PropertyList-1.0.dtd"> / <plist version="1.0"> / <dict> /  <key>cast</key> /  <array> /   <dict> /    <key>name</key> /    <string>Рассел Кроу</string> /   </dict> /   <dict> /    <key>name</key> /    <string>Бен Аффлек</string> /   </dict> /   <dict> /    <key>name</key> /    <string>Рэйчел МакАдамс</string> /   </dict> /   <dict> /    <key>name</key> /    <string>Хелен Миррен</string> /   </dict> /   <dict> /    <key>name</key> /    <string>Робин Райт</string> /   </dict> /   <dict> /    <key>name</key> /    <string>Джейсон Бейтман</string> /   </dict> /   <dict> /    <key>name</key> /    <string>Джефф Дэниелс</string> /   </dict> /   <dict> /    <key>name</key> /    <string>Майкл Беррессе</string> /   </dict> /   <dict> /    <key>name</key> /    <string>Гарри Дж. Ленникс</string> /   </dict> /   <dict> /    <key>name</key> /    <string>Джош Мостел</string> /   </dict> /  </array> /  <key>directors</key> /  <array> /   <dict> /    <key>name</key> /    <string>Кевин МакДональд</string> /   </dict> /  </array> /  <key>producers</key> /  <array> /   <dict> /    <key>name</key> /    <string>Тим Беван</string> /   </dict> /   <dict> /    <key>name</key> /    <string>Эрик Феллнер</string> /   </dict> /   <dict> /    <key>name</key> /    <string>Эндрю Хауптман</string> /   </dict> /  </array> /  <key>screenwriters</key> /  <array> /   <dict> /    <key>name</key> /    <string>Мэттью Майкл Карнахан</string> /   </dict> /   <dict> /    <key>name</key> /    <string>Тони Гилрой</string> /   </dict> /   <dict> /    <key>name</key> /    <string>Билли Рэй</string> /   </dict> /  </array> /  <key>studio</key> /  <string>Universal Pictures</string> / </dict> / </plist>
    Video #1
    ID : 1
    Format : AVC
    Format/Info : Advanced Video Codec
    Format profile : High@L3.1
    Format settings, CABAC : No
    Format settings, ReFrames : 3 frames
    Codec ID : avc1
    Codec ID/Info : Advanced Video Coding
    Duration : 2h 7mn
    Bit rate : 6 000 Kbps
    Width : 1 280 pixels
    Height : 544 pixels
    Display aspect ratio : 2.35:1
    Frame rate mode : Variable
    Frame rate : 23.976 fps
    Minimum frame rate : 23.810 fps
    Maximum frame rate : 24.390 fps
    Color space : YUV
    Chroma subsampling : 4:2:0
    Bit depth : 8 bits
    Scan type : Progressive
    Bits/(Pixel*Frame) : 0.359
    Stream size : 5.32 GiB (78%)
    Writing library : x264 core 130 r2273 b3065e6
    Encoding settings : cabac=0 / ref=3 / deblock=1:-3:-2 / analyse=0x3:0x113 / me=umh / subme=9 / psy=1 / psy_rd=0.80:0.25 / mixed_ref=1 / me_range=32 / chroma_me=1 / trellis=0 / 8x8dct=1 / cqm=0 / deadzone=6,6 / fast_pskip=0 / chroma_qp_offset=-2 / threads=18 / lookahead_threads=1 / sliced_threads=0 / nr=0 / decimate=0 / interlaced=0 / bluray_compat=0 / constrained_intra=0 / bframes=3 / b_pyramid=0 / b_adapt=2 / b_bias=0 / direct=1 / weightb=0 / open_gop=0 / weightp=0 / keyint=240 / keyint_min=24 / scenecut=40 / intra_refresh=0 / rc_lookahead=40 / rc=2pass / mbtree=1 / bitrate=6000 / ratetol=1.0 / qcomp=0.80 / qpmin=0 / qpmax=69 / qpstep=4 / cplxblur=20.0 / qblur=0.5 / vbv_maxrate=9500 / vbv_bufsize=9500 / nal_hrd=none / ip_ratio=1.10 / aq=1:0.50
    Language : English
    Encoded date : UTC 2014-11-21 07:13:00
    Tagged date : UTC 2014-11-21 07:21:40
    Color primaries : BT.709
    Transfer characteristics : BT.709
    Matrix coefficients : BT.709
    Video #2
    ID : 20
    Format : JPEG
    Codec ID : jpeg
    Duration : 2h 7mn
    Bit rate mode : Variable
    Bit rate : 758 bps
    Width : 640 pixels
    Height : 272 pixels
    Display aspect ratio : 2.35:1
    Frame rate mode : Variable
    Frame rate : 0.003 fps
    Minimum frame rate : 0.001 fps
    Maximum frame rate : 0.005 fps
    Color space : YUV
    Chroma subsampling : 4:2:0
    Bit depth : 8 bits
    Compression mode : Lossy
    Bits/(Pixel*Frame) : 1.451
    Stream size : 617 KiB (0%)
    Language : English
    Encoded date : UTC 2014-11-21 08:27:19
    Tagged date : UTC 2014-11-21 08:27:20
    Audio #1
    ID : 2
    Format : AAC
    Format/Info : Advanced Audio Codec
    Format profile : LC
    Codec ID : 40
    Duration : 2h 7mn
    Bit rate mode : Variable
    Bit rate : 198 Kbps
    Maximum bit rate : 321 Kbps
    Channel(s) : 2 channels
    Channel positions : Front: L R
    Sampling rate : 48.0 KHz
    Compression mode : Lossy
    Stream size : 180 MiB (3%)
    Language : Russian
    Encoded date : UTC 2014-11-21 07:13:00
    Tagged date : UTC 2014-11-21 07:22:42
    Audio #2
    ID : 3
    Format : AAC
    Format/Info : Advanced Audio Codec
    Format profile : LC
    Codec ID : 40
    Duration : 2h 7mn
    Bit rate mode : Variable
    Bit rate : 198 Kbps
    Maximum bit rate : 328 Kbps
    Channel(s) : 2 channels
    Channel positions : Front: L R
    Sampling rate : 48.0 KHz
    Compression mode : Lossy
    Stream size : 180 MiB (3%)
    Language : English
    Encoded date : UTC 2014-11-21 07:13:00
    Tagged date : UTC 2014-11-21 07:22:42
    Audio #3
    ID : 4
    Format : AC-3
    Format/Info : Audio Coding 3
    Mode extension : CM (complete main)
    Format settings, Endianness : Big
    Codec ID : ac-3
    Duration : 2h 7mn
    Bit rate mode : Constant
    Bit rate : 640 Kbps
    Channel(s) : 6 channels
    Channel positions : Front: L C R, Side: L R, LFE
    Sampling rate : 48.0 KHz
    Bit depth : 16 bits
    Compression mode : Lossy
    Stream size : 581 MiB (8%)
    Language : Russian
    Encoded date : UTC 2014-11-21 07:13:00
    Tagged date : UTC 2014-11-21 07:15:16
    Audio #4
    ID : 5
    Format : AC-3
    Format/Info : Audio Coding 3
    Mode extension : CM (complete main)
    Format settings, Endianness : Big
    Codec ID : ac-3
    Duration : 2h 7mn
    Bit rate mode : Constant
    Bit rate : 640 Kbps
    Channel(s) : 6 channels
    Channel positions : Front: L C R, Side: L R, LFE
    Sampling rate : 48.0 KHz
    Bit depth : 16 bits
    Compression mode : Lossy
    Stream size : 581 MiB (8%)
    Language : English
    Encoded date : UTC 2014-11-21 07:13:00
    Tagged date : UTC 2014-11-21 07:15:17
    Text #1
    ID : 6
    Format : Timed Text
    Muxing mode : sbtl
    Codec ID : tx3g
    Duration : 1h 58mn
    Bit rate mode : Variable
    Bit rate : 2 bps
    Stream size : 1.30 KiB (0%)
    Language : Russian
    Encoded date : UTC 2014-11-21 08:15:21
    Tagged date : UTC 2014-11-21 08:15:21
    Text #2
    ID : 7
    Format : Timed Text
    Muxing mode : sbtl
    Codec ID : tx3g
    Duration : 1h 58mn
    Bit rate mode : Variable
    Bit rate : 2 bps
    Stream size : 1.39 KiB (0%)
    Language : Ukrainian
    Encoded date : UTC 2014-11-21 08:15:21
    Tagged date : UTC 2014-11-21 08:15:21
    Text #3
    ID : 8
    Format : Timed Text
    Muxing mode : sbtl
    Codec ID : tx3g
    Duration : 1h 58mn
    Bit rate mode : Variable
    Bit rate : 126 bps
    Stream size : 109 KiB (0%)
    Language : Russian
    Encoded date : UTC 2014-11-21 08:15:21
    Tagged date : UTC 2014-11-21 08:15:21
    Text #4
    ID : 9
    Format : Timed Text
    Muxing mode : sbtl
    Codec ID : tx3g
    Duration : 1h 58mn
    Bit rate mode : Variable
    Bit rate : 128 bps
    Stream size : 111 KiB (0%)
    Language : Ukrainian
    Encoded date : UTC 2014-11-21 08:15:21
    Tagged date : UTC 2014-11-21 08:15:21
    Text #5
    ID : 10
    Format : Timed Text
    Muxing mode : sbtl
    Codec ID : tx3g
    Duration : 2h 0mn
    Bit rate mode : Variable
    Bit rate : 82 bps
    Stream size : 72.6 KiB (0%)
    Language : English
    Encoded date : UTC 2014-11-21 08:16:59
    Tagged date : UTC 2014-11-21 08:16:59
    Text #6
    ID : 11
    Format : Timed Text
    Muxing mode : sbtl
    Codec ID : tx3g
    Duration : 1h 58mn
    Bit rate mode : Variable
    Bit rate : 66 bps
    Stream size : 57.5 KiB (0%)
    Language : Danish
    Encoded date : UTC 2014-11-21 08:21:06
    Tagged date : UTC 2014-11-21 08:21:06
    Text #7
    ID : 12
    Format : Timed Text
    Muxing mode : sbtl
    Codec ID : tx3g
    Duration : 1h 58mn
    Bit rate mode : Variable
    Bit rate : 61 bps
    Stream size : 52.9 KiB (0%)
    Language : Dutch
    Encoded date : UTC 2014-11-21 08:21:06
    Tagged date : UTC 2014-11-21 08:21:06
    Text #8
    ID : 13
    Format : Timed Text
    Muxing mode : sbtl
    Codec ID : tx3g
    Duration : 1h 58mn
    Bit rate mode : Variable
    Bit rate : 59 bps
    Stream size : 51.3 KiB (0%)
    Language : Finnish
    Encoded date : UTC 2014-11-21 08:21:06
    Tagged date : UTC 2014-11-21 08:21:06
    Text #9
    ID : 14
    Format : Timed Text
    Muxing mode : sbtl
    Codec ID : tx3g
    Duration : 1h 58mn
    Bit rate mode : Variable
    Bit rate : 87 bps
    Stream size : 75.3 KiB (0%)
    Language : German
    Encoded date : UTC 2014-11-21 08:21:06
    Tagged date : UTC 2014-11-21 08:21:06
    Text #10
    ID : 15
    Format : Timed Text
    Muxing mode : sbtl
    Codec ID : tx3g
    Duration : 1h 58mn
    Bit rate mode : Variable
    Bit rate : 70 bps
    Stream size : 60.5 KiB (0%)
    Language : Norwegian
    Encoded date : UTC 2014-11-21 08:21:06
    Tagged date : UTC 2014-11-21 08:21:06
    Text #11
    ID : 16
    Format : Timed Text
    Muxing mode : sbtl
    Codec ID : tx3g
    Duration : 2h 0mn
    Bit rate mode : Variable
    Bit rate : 70 bps
    Stream size : 62.4 KiB (0%)
    Language : Portuguese
    Encoded date : UTC 2014-11-21 08:22:35
    Tagged date : UTC 2014-11-21 08:22:35
    Text #12
    ID : 17
    Format : Timed Text
    Muxing mode : sbtl
    Codec ID : tx3g
    Duration : 1h 58mn
    Bit rate mode : Variable
    Bit rate : 81 bps
    Stream size : 70.7 KiB (0%)
    Language : Spanish
    Encoded date : UTC 2014-11-21 08:23:00
    Tagged date : UTC 2014-11-21 08:23:00
    Text #13
    ID : 18
    Format : Timed Text
    Muxing mode : sbtl
    Codec ID : tx3g
    Duration : 1h 58mn
    Bit rate mode : Variable
    Bit rate : 71 bps
    Stream size : 61.3 KiB (0%)
    Language : Swedish
    Encoded date : UTC 2014-11-21 08:23:00
    Tagged date : UTC 2014-11-21 08:23:00
    Menu #1
    00:00:00.000 : 1. Investigative reporting
    00:05:41.174 : 2. Congressional hearing
    00:09:03.876 : 3. Breaking news
    00:15:13.203 : 4. Plausible alternative
    00:20:05.913 : 5. Gathering facts
    00:28:58.194 : 6. Substantiating evidence
    00:34:41.245 : 7. Military connection
    00:41:52.927 : 8. A couple of questions
    00:46:08.557 : 9. Blood on your hands
    00:51:40.972 : 10. Digging deeper
    00:56:24.506 : 11. Inside information
    01:01:44.492 : 12. Just a source
    01:07:09.233 : 13. Lethal lead
    01:13:19.561 : 14. Going to press
    01:18:48.432 : 15. Working the slant
    01:27:52.892 : 16. The other side
    01:34:41.384 : 17. Corporate cover-up
    01:38:15.431 : 18. For the record
    01:45:51.053 : 19. Truth be told
    01:58:02.533 : 20. End titles
    Menu #2
    ID : 19
    Codec ID : text
    Duration : 2h 7mn
    Language : English
    Encoded date : UTC 2014-11-21 08:27:13
    Tagged date : UTC 2014-11-21 08:27:13
    00:00:00.000 : 1. Investigative reporting
    00:05:41.174 : 2. Congressional hearing
    00:09:03.876 : 3. Breaking news
    00:15:13.203 : 4. Plausible alternative
    00:20:05.913 : 5. Gathering facts
    00:28:58.194 : 6. Substantiating evidence
    00:34:41.245 : 7. Military connection
    00:41:52.927 : 8. A couple of questions
    00:46:08.557 : 9. Blood on your hands
    00:51:40.972 : 10. Digging deeper
    00:56:24.506 : 11. Inside information
    01:01:44.492 : 12. Just a source
    01:07:09.233 : 13. Lethal lead
    01:13:19.561 : 14. Going to press
    01:18:48.432 : 15. Working the slant
    01:27:52.892 : 16. The other side
    01:34:41.384 : 17. Corporate cover-up
    01:38:15.431 : 18. For the record
    01:45:51.053 : 19. Truth be told
    01:58:02.533 : 20. End titles
    Bit rate mode : VBR

    x264 лог 480p Release

    HandBrakeCLI -i "State.of.Play.mkv" -t 1 -o "State.of.Play.480p.eng.m4v" -f mp4 -I -O -w 640 -l 362 --crop 132:132:0:0 --custom-anamorphic --modulus 2 --pixel-aspect 852:640 -e x264 -b 1600 -2 -a none -x cabac=0:ref=2:me=umh:bframes=0:weightp=0:subq=6:8x8dct=0:trellis=0:vbv-maxrate=5000:vbv-bufsize=5000 --verbose=1
    x264 [info]: frame I:2593  Avg QP:13.38  size: 31279  PSNR Mean Y:49.61 U:52.61 V:53.00 Avg:50.30 Global:49.74
    x264 [info]: frame P:180141 Avg QP:16.06  size:  8011  PSNR Mean Y:46.92 U:51.61 V:51.83 Avg:47.61 Global:47.12
    x264 [info]: mb I  I16..4: 23.4%  0.0% 76.6%
    x264 [info]: mb P  I16..4:  0.7%  0.0%  2.0%  P16..4: 44.9% 28.7% 11.7%  0.0%  0.0%    skip:11.9%
    x264 [info]: coded y,uvDC,uvAC intra: 80.3% 81.7% 71.8% inter: 32.0% 23.2% 9.2%
    x264 [info]: i16 v,h,dc,p: 47% 14% 12% 28%
    x264 [info]: i4 v,h,dc,ddl,ddr,vr,hd,vl,hu: 31% 15% 15%  6%  7%  9%  6%  7%  5%
    x264 [info]: i8c dc,h,v,p: 53% 14% 25%  8%
    x264 [info]: ref P L0: 68.5% 31.5%
    x264 [info]: SSIM Mean Y:0.9893014 (19.707db)
    x264 [info]: PSNR Mean Y:46.954 U:51.622 V:51.844 Avg:47.648 Global:47.149 kb/s:1599.93

    x264 лог 720p Release

    HandBrakeCLI -i "State.of.Play.mkv" -t 1 -o "State.of.Play.720p.eng.m4v" -f mp4 -4 -O -w 1280 -l 544 --crop 132:132:0:0 --modulus 16 -e x264 -b 6000 -2 -a none -x cabac=0:ref=3:me=umh:b-pyramid=none:b-adapt=2:weightb=0:trellis=0:weightp=0:vbv-maxrate=9500:vbv-bufsize=9500:subq=9:merange=32:deblock=-3,-2:qcomp=0.80:qpmin=0:qpmax=69:fast_pskip=0:aq-strength=0.5:no-dct-decimate=1:psy-rd=0.80,0.25:ipratio=1.1:pbratio=1.1:deadzone-inter=6:deadzone-intra=6 --verbose=1
    x264 [info]: frame I:1747  Avg QP:15.29  size: 91812  PSNR Mean Y:49.07 U:51.37 V:52.04 Avg:49.59 Global:49.33
    x264 [info]: frame P:58811 Avg QP:16.33  size: 53017  PSNR Mean Y:48.46 U:51.50 V:52.32 Avg:48.99 Global:48.49
    x264 [info]: frame B:122176 Avg QP:17.98  size: 19943  PSNR Mean Y:46.98 U:51.38 V:52.43 Avg:47.69 Global:47.18
    x264 [info]: consecutive B-frames:  2.3% 17.2% 25.7% 54.8%
    x264 [info]: mb I  I16..4: 11.2% 61.3% 27.5%
    x264 [info]: mb P  I16..4:  3.1% 14.1%  2.8%  P16..4: 38.3% 25.1% 11.7%  0.0%  0.0%    skip: 4.9%
    x264 [info]: mb B  I16..4:  0.2%  1.6%  0.2%  B16..8: 30.9% 11.9%  2.0%  direct: 7.5%  skip:45.6%  L0:34.9% L1:38.4% BI:26.7%
    x264 [info]: 8x8 transform intra:71.2% inter:38.1%
    x264 [info]: coded y,uvDC,uvAC intra: 88.0% 78.6% 68.3% inter: 42.3% 21.1% 13.0%
    x264 [info]: i16 v,h,dc,p: 39% 11% 12% 38%
    x264 [info]: i8 v,h,dc,ddl,ddr,vr,hd,vl,hu: 12% 10% 11%  9% 12% 12% 12% 11% 11%
    x264 [info]: i4 v,h,dc,ddl,ddr,vr,hd,vl,hu: 12% 11%  6% 11% 16% 14% 13% 10%  9%
    x264 [info]: i8c dc,h,v,p: 56% 15% 18% 11%
    x264 [info]: ref P L0: 65.9% 21.7% 12.4%
    x264 [info]: ref B L0: 81.3% 18.7%
    x264 [info]: SSIM Mean Y:0.9865796 (18.722db)
    x264 [info]: PSNR Mean Y:47.476 U:51.415 V:52.389 Avg:48.125 Global:47.577 kb/s:5998.66

    Скриншоты 480p Release

    Скриншоты 720p Release

    -

    Релиз подготовлен для просмотра на Apple TV, iPad, iPhone, iPod Touch.
    Для просмотра данного релиза на компьютере с ОС Windows рекомендуется использовать VLC media player
    Скачать .torrent

    Скачать торрент-файл бесплатно и на максимальной скорости!

    Как скачивать? · Что такое торрент? · Рейтинг и ограничения

    !ВНИМАНИЕ!
    Сайт не распространяет и не хранит электронные версии произведений, а занимается лишь лишь предоставлением доступа к создаваемому пользователями каталогу ссылок на торрент-файлы, которые содержат только списки хеш-сумм, убедительная просьба с жалобами обращаться напрямую к пользователю. Файлы для обмена на трекере предоставлены пользователями сайта, и администрация не несёт ответственности за их содержание. Просьба не заливать файлы, защищенные авторскими правами, а также файлы нелегального содержания!


  • _________________
    [Профиль] [ЛС]
    Показать сообщения:    
    Ответить на тему

    Текущее время: Сегодня, в 20:39

    Часовой пояс: GMT + 2



    Вы не можете начинать темы
    Вы не можете отвечать на сообщения
    Вы не можете редактировать свои сообщения
    Вы не можете удалять свои сообщения
    Вы не можете голосовать в опросах
    Вы не можете прикреплять файлы к сообщениям
    Вы не можете скачивать файлы