BitTorrentTracker PerecTracker.org
BitTorrentTracker PerecTracker.org
    
Регистрация  ·  Вход
 
 · 
Забыли пароль?

  • [ATV3] История дельфина 2 / Dolphin Tale 2 (Чарльз Мартин Смит / Charles Martin Smith ) [2014, США, Драма, семейный, BDRip, HD (1080p)] DUB + Original + sub (eng)

    Ответить на тему
     
    Автор Сообщение

    Flirldrerve

    Создавать темы 27-Окт-2015 05:20

           

    [Цитировать]

    История дельфина 2 / Dolphin Tale 2
    «В удивительной истории Уинтер появилась надежда»
    7.084 / 10 6.50 / 10
    -Год выпуска: 2014
    Страна: США
    Жанр: Драма, семейный
    Продолжительность: 01:47:14
    Перевод: Дублированный (iTunes Russia)
    Оригинальная аудиодорожка: Есть
    Cубтитры: Английские
    Режиссёр: Чарльз Мартин Смит
    Сценарий: Чарльз Мартин Смит, Карен Джансзен, Ноам Дроми
    Продюсер: Бродерик Джонсон, Эндрю А. Косов, Стивен П. Вегнер
    Оператор: Дарин Окада
    Композитор: Рэйчел Портман
    Художник: Дэвид Дж. Бомба, Марк Гарнер, Хоуп Хэнэфин
    Монтаж: Харви Розенсток
    В ролях: Морган Фриман, Эшли Джадд, Гарри Конник мл., Крис Кристофферсон, Нэйтан Гэмбл, Джулия Винтер, Кози Цуельсдорфф, Остин Стоуэлл, Джулиана Харкви, Остин Хигсмит
    Бюджет: $36 000 000
    Сборы в США: $41 877 013
    Сборы в мире: + $10 400 000 = $52 277 013
    Сборы в России: $1 063 781
    Мировая премьера: 11 сентября 2014
    Премьера (РФ): 11 сентября 2014, «Каро-Премьер»
    Релиз на DVD: 25 декабря 2014, «CP Дистрибуция»
    Релиз на Blu-Ray: 25 декабря 2014, «CP Дистрибуция»
    Описание: Прошло несколько лет после событий, описываемых в первом фильме. Суррогатная мать Уинтер, старая дельфиниха по имени Панама, скончалась. В итоге Уинтер осталась одна, а по законам Министерства сельского хозяйства США дельфинов нельзя содержать по одному. Чтобы Уинтер не перевезли в другой аквариум, команде морского госпиталя придется найти ей компаньона…-Качество исходника: Кинозал, История дельфина 2 / Dolphin Tale 2 / 2014 / ДБ / Blu-Ray Remux (1080p)
    Качество: BDRip
    Тип: HD (1080p)
    Контейнер: M4V
    Видео: H.264, 1920x1080, 16:9, 8 000 Kbps, 23.976 fps
    Аудио 1: Русский/Дублированный (iTunes Russia), AAC / 2.0 / 158 Kbps / 48.0 KHz
    Аудио 2: Английский/Оригинальная дорожка , AAC / 2.0 / 159 Kbps / 48.0 KHz
    Аудио 3: Русский/Дублированный (iTunes Russia), AC-3 / 5.1 / 384 Kbps / 48.0 KHz
    Аудио 4: Английский/Оригинальная дорожка , AC-3 / 5.1 / 640 Kbps / 48.0 KHz
    Субтитры: Английские полные
    -

    iTunes Meta Tags

    Sort Name: Dolphin Tale 2
    XID: Apple:vendor_id:2014-771227
    contentID: 911619275
    Copyright: © 2014 Alcon Entertainment, LLC. All Rights Reserved.
    Screenwriters: Чарльз Мартин Смит, Карен Джансзен, Ноам Дроми
    Producers: Бродерик Джонсон, Эндрю А. Косов, Стивен П. Вегнер
    Director: Чарльз Мартин Смит
    Cast: Морган Фриман, Эшли Джадд, Гарри Конник мл., Крис Кристофферсон, Нэйтан Гэмбл, Джулия Винтер, Кози Цуельсдорфф, Остин Стоуэлл, Джулиана Харкви, Остин Хигсмит
    Studio: Warner Bros.
    Rating: 9
    Long Description: Прошло несколько лет после событий, описываемых в первом фильме. Суррогатная мать Уинтер, старая дельфиниха по имени Панама, скончалась. В итоге Уинтер осталась одна, а по законам Министерства сельского хозяйства США дельфинов нельзя содержать по одному. Чтобы Уинтер не перевезли в другой аквариум, команде морского госпиталя придется найти ей компаньона...
    Description: Прошло несколько лет после событий, описываемых в первом фильме. Суррогатная мать Уинтер, старая дельфиниха по имени Панама, скончалась. В итоге Уинтер осталась одна, а по законам Министерства сельского хозяйства США дельфинов нельзя содержать по одному. Чтобы Уинтер не перевезли в другой аквариум, команде морского госпиталя придется найти ей компаньона...
    Release Date: 2014-09-11T08:00:00Z
    Genre: Kids & Family
    Artist: Charles Martin Smith
    Name: Dolphin Tale 2

    MediaInfo

    General
    Complete name                            : /Users/imac/HandBrake/Dolphin Tale 2 (1080p HD).m4v
    Format                                   : MPEG-4
    Codec ID                                 : M4V
    File size                                : 7.00 GiB
    Duration                                 : 1h 47mn
    Overall bit rate mode                    : Variable
    Overall bit rate                         : 9 341 Kbps
    Movie name                               : Dolphin Tale 2
    Performer                                : Charles Martin Smith
    Genre                                    : Kids & Family
    Recorded date                            : UTC 2014-09-11 08:00:00
    Encoded date                             : UTC 2014-11-27 10:16:40
    Tagged date                              : UTC 2014-11-27 10:22:11
    Copyright                                : © 2014 Alcon Entertainment, LLC. All Rights Reserved.
    Cover                                    : Yes
    sonm                                     : Dolphin Tale 2
    desc                                     : Прошло несколько лет после событий, описываемых в первом фильме. Суррогатная мать Уинтер, старая дельфиниха по имени Панама, скончалась. В итоге Уинтер осталась одна, а по законам Министерства сельского хозяйства США дельфинов нельзя содержать по одному. Чтобы Уинтер не перевезли в другой аквариум, команде морского госпиталя придется найти ей компаньона...
    ldes                                     : Прошло несколько лет после событий, описываемых в первом фильме. Суррогатная мать Уинтер, старая дельфиниха по имени Панама, скончалась. В итоге Уинтер осталась одна, а по законам Министерства сельского хозяйства США дельфинов нельзя содержать по одному. Чтобы Уинтер не перевезли в другой аквариум, команде морского госпиталя придется найти ей компаньона...
    hdvd                                     : 2
    stik                                     : 9
    rtng                                     : 0
    cnID                                     : 911619275
    xid                                      : Apple:vendor_id:2014-771227
    iTunEXTC                                 : mpaa|PG|200|
    iTunMOVI                                 : <?xml version=\"1.0\" encoding=\"UTF-8\"?> / <!DOCTYPE plist PUBLIC \"-//Apple//DTD PLIST 1.0//EN\" \"http://anonym.to/?http://www.apple.com/DTDs/PropertyList-1.0.dtd\"> / <plist version=\"1.0\"> / <dict> /  <key>cast</key> /  <array> /   <dict> /    <key>name</key> /    <string>Морган Фриман</string> /   </dict> /   <dict> /    <key>name</key> /    <string>Эшли Джадд</string> /   </dict> /   <dict> /    <key>name</key> /    <string>Гарри Конник мл.</string> /   </dict> /   <dict> /    <key>name</key> /    <string>Крис Кристофферсон</string> /   </dict> /   <dict> /    <key>name</key> /    <string>Нэйтан Гэмбл</string> /   </dict> /   <dict> /    <key>name</key> /    <string>Джулия Винтер</string> /   </dict> /   <dict> /    <key>name</key> /    <string>Кози Цуельсдорфф</string> /   </dict> /   <dict> /    <key>name</key> /    <string>Остин Стоуэлл</string> /   </dict> /   <dict> /    <key>name</key> /    <string>Джулиана Харкви</string> /   </dict> /   <dict> /    <key>name</key> /    <string>Остин Хигсмит</string> /   </dict> /  </array> /  <key>directors</key> /  <array> /   <dict> /    <key>name</key> /    <string>Чарльз Мартин Смит</string> /   </dict> /  </array> /  <key>producers</key> /  <array> /   <dict> /    <key>name</key> /    <string>Бродерик Джонсон</string> /   </dict> /   <dict> /    <key>name</key> /    <string>Эндрю А. Косов</string> /   </dict> /   <dict> /    <key>name</key> /    <string>Стивен П. Вегнер</string> /   </dict> /  </array> /  <key>screenwriters</key> /  <array> /   <dict> /    <key>name</key> /    <string>Чарльз Мартин Смит</string> /   </dict> /   <dict> /    <key>name</key> /    <string>Карен Джансзен</string> /   </dict> /   <dict> /    <key>name</key> /    <string>Ноам Дроми</string> /   </dict> /  </array> /  <key>studio</key> /  <string>Warner Bros.</string> / </dict> / </plist>
    Video #1
    ID                                       : 1
    Format                                   : AVC
    Format/Info                              : Advanced Video Codec
    Format profile                           : High@L4.0
    Format settings, CABAC                   : Yes
    Format settings, ReFrames                : 4 frames
    Codec ID                                 : avc1
    Codec ID/Info                            : Advanced Video Coding
    Duration                                 : 1h 47mn
    Bit rate mode                            : Variable
    Bit rate                                 : 8 000 Kbps
    Width                                    : 1 920 pixels
    Height                                   : 1 080 pixels
    Display aspect ratio                     : 16:9
    Frame rate mode                          : Variable
    Frame rate                               : 23.976 fps
    Minimum frame rate                       : 23.810 fps
    Maximum frame rate                       : 24.272 fps
    Color space                              : YUV
    Chroma subsampling                       : 4:2:0
    Bit depth                                : 8 bits
    Scan type                                : Progressive
    Bits/(Pixel*Frame)                       : 0.161
    Stream size                              : 5.99 GiB (86%)
    Writing library                          : x264 core 142 r2479 dd79a61
    Encoding settings                        : cabac=1 / ref=4 / deblock=1:0:0 / analyse=0x3:0x133 / me=umh / subme=10 / psy=1 / psy_rd=1.00:0.00 / mixed_ref=1 / me_range=32 / chroma_me=1 / trellis=2 / 8x8dct=1 / cqm=0 / deadzone=21,11 / fast_pskip=1 / chroma_qp_offset=-2 / threads=12 / lookahead_threads=1 / sliced_threads=0 / nr=0 / decimate=1 / interlaced=0 / bluray_compat=0 / constrained_intra=0 / bframes=4 / b_pyramid=2 / b_adapt=2 / b_bias=0 / direct=3 / weightb=1 / open_gop=0 / weightp=2 / keyint=240 / keyint_min=24 / scenecut=40 / intra_refresh=0 / rc_lookahead=40 / rc=2pass / mbtree=0 / bitrate=8000 / ratetol=1.0 / qcomp=0.60 / qpmin=0 / qpmax=69 / qpstep=4 / cplxblur=20.0 / qblur=0.5 / vbv_maxrate=25000 / vbv_bufsize=25000 / nal_hrd=none / filler=0 / ip_ratio=1.40 / pb_ratio=1.30 / aq=1:1.00
    Language                                 : English
    Encoded date                             : UTC 2014-11-27 10:16:40
    Tagged date                              : UTC 2014-11-27 10:19:41
    Color primaries                          : BT.709-5, BT.1361, IEC 61966-2-4, SMPTE RP177
    Transfer characteristics                 : BT.709-5, BT.1361
    Matrix coefficients                      : BT.709-5, BT.1361, IEC 61966-2-4 709, SMPTE RP177
    Video #2
    ID                                       : 8
    Format                                   : JPEG
    Codec ID                                 : jpeg
    Duration                                 : 1h 47mn
    Bit rate mode                            : Variable
    Bit rate                                 : 721 bps
    Width                                    : 640 pixels
    Height                                   : 360 pixels
    Display aspect ratio                     : 16:9
    Frame rate mode                          : Variable
    Frame rate                               : 0.002 fps
    Minimum frame rate                       : 0.001 fps
    Maximum frame rate                       : 0.004 fps
    Color space                              : YUV
    Chroma subsampling                       : 4:2:0
    Bit depth                                : 8 bits
    Compression mode                         : Lossy
    Bits/(Pixel*Frame)                       : 1.565
    Stream size                              : 484 KiB (0%)
    Language                                 : English
    Encoded date                             : UTC 2014-11-27 10:19:47
    Tagged date                              : UTC 2014-11-27 10:19:47
    Audio #1
    ID                                       : 2
    Format                                   : AAC
    Format/Info                              : Advanced Audio Codec
    Format profile                           : LC
    Codec ID                                 : 40
    Duration                                 : 1h 47mn
    Bit rate mode                            : Variable
    Bit rate                                 : 158 Kbps
    Maximum bit rate                         : 234 Kbps
    Channel(s)                               : 2 channels
    Channel positions                        : Front: L R
    Sampling rate                            : 48.0 KHz
    Compression mode                         : Lossy
    Stream size                              : 121 MiB (2%)
    Language                                 : Russian
    Encoded date                             : UTC 2014-11-27 10:16:40
    Tagged date                              : UTC 2014-11-27 10:17:34
    Audio #2
    ID                                       : 3
    Format                                   : AAC
    Format/Info                              : Advanced Audio Codec
    Format profile                           : LC
    Codec ID                                 : 40
    Duration                                 : 1h 47mn
    Bit rate mode                            : Variable
    Bit rate                                 : 159 Kbps
    Maximum bit rate                         : 234 Kbps
    Channel(s)                               : 2 channels
    Channel positions                        : Front: L R
    Sampling rate                            : 48.0 KHz
    Compression mode                         : Lossy
    Stream size                              : 122 MiB (2%)
    Language                                 : English
    Encoded date                             : UTC 2014-11-27 10:16:40
    Tagged date                              : UTC 2014-11-27 10:16:55
    Audio #3
    ID                                       : 4
    Format                                   : AC-3
    Format/Info                              : Audio Coding 3
    Mode extension                           : CM (complete main)
    Format settings, Endianness              : Big
    Codec ID                                 : ac-3
    Duration                                 : 1h 47mn
    Bit rate mode                            : Constant
    Bit rate                                 : 384 Kbps
    Channel(s)                               : 6 channels
    Channel positions                        : Front: L C R, Side: L R, LFE
    Sampling rate                            : 48.0 KHz
    Bit depth                                : 16 bits
    Compression mode                         : Lossy
    Stream size                              : 294 MiB (4%)
    Language                                 : Russian
    Encoded date                             : UTC 2014-11-27 10:16:40
    Tagged date                              : UTC 2014-11-27 10:16:52
    Audio #4
    ID                                       : 5
    Format                                   : AC-3
    Format/Info                              : Audio Coding 3
    Mode extension                           : CM (complete main)
    Format settings, Endianness              : Big
    Codec ID                                 : ac-3
    Duration                                 : 1h 47mn
    Bit rate mode                            : Constant
    Bit rate                                 : 640 Kbps
    Channel(s)                               : 6 channels
    Channel positions                        : Front: L C R, Side: L R, LFE
    Sampling rate                            : 48.0 KHz
    Bit depth                                : 16 bits
    Compression mode                         : Lossy
    Stream size                              : 491 MiB (7%)
    Language                                 : English
    Encoded date                             : UTC 2014-11-27 10:16:40
    Tagged date                              : UTC 2014-11-27 10:16:55
    Text #1
    ID                                       : 6
    Format                                   : Timed text
    Muxing mode                              : sbtl
    Codec ID                                 : tx3g
    Duration                                 : 1h 37mn
    Bit rate mode                            : Variable
    Bit rate                                 : 61 bps
    Stream size                              : 43.5 KiB (0%)
    Language                                 : English
    Encoded date                             : UTC 2014-11-27 10:16:40
    Tagged date                              : UTC 2014-11-27 10:16:40
    Text #2
    ID                                       : 7
    Format                                   : Apple text
    Codec ID                                 : text
    Duration                                 : 1h 47mn
    Bit rate mode                            : Variable
    Bit rate                                 : 0 bps
    Stream size                              : 255 Bytes (0%)
    Language                                 : English
    Encoded date                             : UTC 2014-11-27 10:19:41
    Tagged date                              : UTC 2014-11-27 10:19:41
    Menu
    00:00:00.000                             : Chapter 1
    00:10:42.016                             : Chapter 2
    00:20:34.900                             : Chapter 3
    00:30:44.051                             : Chapter 4
    00:41:09.008                             : Chapter 5
    00:50:24.146                             : Chapter 6
    00:59:16.470                             : Chapter 7
    01:11:01.507                             : Chapter 8
    01:19:51.662                             : Chapter 9
    01:31:45.041                             : Chapter 10
    01:36:05.343                             : Chapter 11

    x264 лог

    x264 [info]: frame I:1597  Avg QP:16.27  size:205505
    x264 [info]: frame P:47662 Avg QP:19.28  size: 68390
    x264 [info]: frame B:105006 Avg QP:21.27  size: 27040
    x264 [info]: consecutive B-frames:  4.3% 13.6%  6.2% 72.1%  3.8%
    x264 [info]: mb I  I16..4:  7.1% 78.9% 14.0%
    x264 [info]: mb P  I16..4:  2.5% 17.0%  1.8%  P16..4: 43.4% 16.1%  8.7%  0.2%  0.0%    skip:10.3%
    x264 [info]: mb B  I16..4:  0.3%  2.2%  0.4%  B16..8: 48.6%  9.5%  1.9%  direct: 4.9%  skip:32.2%  L0:47.8% L1:46.1% BI: 6.1%
    x264 [info]: 8x8 transform intra:78.9% inter:74.4%
    x264 [info]: direct mvs  spatial:95.7% temporal:4.3%
    x264 [info]: coded y,uvDC,uvAC intra: 78.3% 78.8% 48.9% inter: 23.5% 28.9% 5.7%
    x264 [info]: i16 v,h,dc,p: 21% 25%  8% 47%
    x264 [info]: i8 v,h,dc,ddl,ddr,vr,hd,vl,hu:  9% 15% 10%  8% 11% 10% 14%  9% 14%
    x264 [info]: i4 v,h,dc,ddl,ddr,vr,hd,vl,hu:  9% 21%  4%  7% 11% 10% 15%  8% 16%
    x264 [info]: i8c dc,h,v,p: 42% 29% 15% 14%
    x264 [info]: Weighted P-Frames: Y:1.6% UV:0.9%
    x264 [info]: ref P L0: 58.2%  9.8% 21.3% 10.0%  0.8%  0.0%
    x264 [info]: ref B L0: 88.8%  8.8%  2.4%
    x264 [info]: ref B L1: 95.8%  4.2%
    x264 [info]: kb/s:7991.37

    Скриншоты

    -

    Релиз подготовлен для просмотра на Apple TV, iPad, iPhone, iPod Touch.
    Для просмотра данного релиза на компьютере с ОС Windows рекомендуется использовать VLC media player
    Скачать .torrent

    Скачать торрент-файл бесплатно и на максимальной скорости!

    Как скачивать? · Что такое торрент? · Рейтинг и ограничения

    !ВНИМАНИЕ!
    Сайт не распространяет и не хранит электронные версии произведений, а занимается лишь лишь предоставлением доступа к создаваемому пользователями каталогу ссылок на торрент-файлы, которые содержат только списки хеш-сумм, убедительная просьба с жалобами обращаться напрямую к пользователю. Файлы для обмена на трекере предоставлены пользователями сайта, и администрация не несёт ответственности за их содержание. Просьба не заливать файлы, защищенные авторскими правами, а также файлы нелегального содержания!


    _________________
    [Профиль] [ЛС]
    Показать сообщения:    
    Ответить на тему

    Текущее время: Сегодня, в 06:19

    Часовой пояс: GMT + 2



    Вы не можете начинать темы
    Вы не можете отвечать на сообщения
    Вы не можете редактировать свои сообщения
    Вы не можете удалять свои сообщения
    Вы не можете голосовать в опросах
    Вы не можете прикреплять файлы к сообщениям
    Вы не можете скачивать файлы