BitTorrentTracker PerecTracker.org
BitTorrentTracker PerecTracker.org
    
Регистрация  ·  Вход
 
 · 
Забыли пароль?

  • [ATV3] Черепашки-ниндзя / Teenage Mutant Ninja Turtles (Джонатан Либесман / Jonathan Liebesman ) [2014, США, Фантастика, фэнтези, боевик, комедия, приключения, BDRip, HD (1080p)] DUB + Original + sub (rus for, rus, eng)

    Ответить на тему
     
    Автор Сообщение

    Flirldrerve

    Создавать темы 27-Окт-2015 05:20

           

    [Цитировать]

    Черепашки-ниндзя / Teenage Mutant Ninja Turtles
    «The leader. The brains. The attitude. And Mikey»
    6.382 / 10 6.20 / 10
    -Год выпуска: 2014
    Страна: США
    Жанр: Фантастика, фэнтези, боевик, комедия, приключения
    Продолжительность: 01:41:18
    Перевод: Дублированный (iTunes Russia)
    Оригинальная аудиодорожка: Есть
    Cубтитры: Русские форсированные, Русские, Английские
    Режиссёр: Джонатан Либесман
    Сценарий: Джош Аппелбаум, Андре Немец, Ивэн Догерти
    Продюсер: Майкл Бэй, Йен Брайс, Эндрю Форм
    Оператор: Лула Карвальо
    Композитор: Брайан Тайлер
    Художник: Нил Спайсэк, Мигель Лопес-Кастильо, Скотт П. Мерфи
    Монтаж: Джоэль Негрон, Глен Скэнтлебери
    В ролях: Меган Фокс, Уилл Арнетт, Уильям Фихтнер, Алан Ричсон, Ноэль Фишер, Пит Пложек, Джонни Ноксвил, Джереми Ховард, Дэнни Вудберн, Тони Шэлуб
    Бюджет: $125 000 000
    Сборы в США: $191 204 754
    Сборы в мире: + $286 000 000 = $477 204 754
    Сборы в России: $29 067 226
    Мировая премьера: 3 августа 2014
    Премьера (РФ): 7 августа 2014, «Централ Партнершип»
    Релиз на DVD: 15 декабря 2014, «Новый Диск»
    Релиз на Blu-Ray: 15 декабря 2014, «Новый Диск»
    Описание: Город нуждается в героях. Тьма окутала Нью-Йорк в виде Шреддера и его зловещего Клана Футов, у которого имеется железный контроль над всеми, от полицейских до политиков. Будущее выглядит мрачным, пока из канализации не поднимается и не раскрывает своё предназначение четвёрка отверженных братьев — Черепашки-ниндзя. Черепашки должны работать вместе с бесстрашным репортёром Эйприл и её саркастическим оператором Верном Фенвиком, чтобы спасти город и разгадать дьявольский план Шреддера.-Качество исходника: Кинозал, Черепашки-ниндзя / Teenage Mutant Ninja Turtles / 2014 / ДБ, СТ / Blu-Ray Remux (1080p)
    Качество: BDRip
    Тип: HD (1080p)
    Контейнер: M4V
    Видео: H.264, 1920x800, 2.40:1, 8 000 Kbps, 23.976 fps
    Аудио 1: Русский/Дублированный (iTunes Russia), AAC / 2.0 / 157 Kbps / 48.0 KHz
    Аудио 2: Английский/Оригинальная дорожка , AAC / 2.0 / 158 Kbps / 48.0 KHz
    Аудио 3: Русский/Дублированный (iTunes Russia), AC-3 / 5.1 / 384 Kbps / 48.0 KHz
    Аудио 4: Английский/Оригинальная дорожка , AC-3 / 5.1 / 640 Kbps / 48.0 KHz
    Субтитры 1: Русские форсированные
    Субтитры 2: Русские полные
    Субтитры 3: Английские полные
    -

    iTunes Meta Tags

    Sort Name: Teenage Mutant Ninja Turtles
    XID: Apple:vendor_id:2014-461206
    contentID: 904534727
    Copyright: © 2014 By Paramount Pictures Corp. All Rights Reserved.
    Screenwriters: Джош Аппелбаум, Андре Немец, Ивэн Догерти
    Producers: Майкл Бэй, Йен Брайс, Эндрю Форм
    Director: Джонатан Либесман
    Cast: Меган Фокс, Уилл Арнетт, Уильям Фихтнер, Алан Ричсон, Ноэль Фишер, Пит Пложек, Джонни Ноксвил, Джереми Ховард, Дэнни Вудберн, Тони Шэлуб
    Studio: Paramount Pictures
    Rating Annotation: Rated PG-13 for sci-fi violence.
    Rating: 10
    Long Description: Город нуждается в героях. Тьма окутала Нью-Йорк в виде Шреддера и его зловещего Клана Футов, у которого имеется железный контроль над всеми, от полицейских до политиков. Будущее выглядит мрачным, пока из канализации не поднимается и не раскрывает своё предназначение четвёрка отверженных братьев — Черепашки-ниндзя. Черепашки должны работать вместе с бесстрашным репортёром Эйприл и её саркастическим оператором Верном Фенвиком, чтобы спасти город и разгадать дьявольский план Шреддера.
    Description: Пришельцы вторглись на Землю, но четверо мутировавших воинов-рептилий восстали против них, чтобы защитить мир.
    Release Date: 2014-08-03T08:00:00Z
    Genre: Action & Adventure
    Artist: Jonathan Liebesman
    Name: Teenage Mutant Ninja Turtles (2014)

    MediaInfo

    General
    Complete name                            : /Users/imac/HandBrake/Teenage Mutant Ninja Turtles (2014) (1080p HD).m4v
    Format                                   : MPEG-4
    Codec ID                                 : M4V
    File size                                : 6.61 GiB
    Duration                                 : 1h 41mn
    Overall bit rate mode                    : Variable
    Overall bit rate                         : 9 345 Kbps
    Movie name                               : Teenage Mutant Ninja Turtles (2014)
    Performer                                : Jonathan Liebesman
    Genre                                    : Action & Adventure
    Recorded date                            : UTC 2014-08-03 08:00:00
    Encoded date                             : UTC 2014-11-28 08:31:33
    Tagged date                              : UTC 2014-11-28 08:42:29
    Copyright                                : © 2014 By Paramount Pictures Corp. All Rights Reserved.
    Cover                                    : Yes
    sonm                                     : Teenage Mutant Ninja Turtles
    desc                                     : Пришельцы вторглись на Землю, но четверо мутировавших воинов-рептилий восстали против них, чтобы защитить мир.
    ldes                                     : Город нуждается в героях. Тьма окутала Нью-Йорк в виде Шреддера и его зловещего Клана Футов, у которого имеется железный контроль над всеми, от полицейских до политиков. Будущее выглядит мрачным, пока из канализации не поднимается и не раскрывает своё предназначение четвёрка отверженных братьев — Черепашки-ниндзя. Черепашки должны работать вместе с бесстрашным репортёром Эйприл и её саркастическим оператором Верном Фенвиком, чтобы спасти город и разгадать дьявольский план Шреддера.
    hdvd                                     : 2
    stik                                     : 9
    rtng                                     : 0
    cnID                                     : 904534727
    xid                                      : Apple:vendor_id:2014-461206
    iTunEXTC                                 : mpaa|PG-13|300|Rated PG-13 for sci-fi violence.
    iTunMOVI                                 : <?xml version=\"1.0\" encoding=\"UTF-8\"?> / <!DOCTYPE plist PUBLIC \"-//Apple//DTD PLIST 1.0//EN\" \"http://anonym.to/?http://www.apple.com/DTDs/PropertyList-1.0.dtd\"> / <plist version=\"1.0\"> / <dict> /  <key>cast</key> /  <array> /   <dict> /    <key>name</key> /    <string>Меган Фокс</string> /   </dict> /   <dict> /    <key>name</key> /    <string>Уилл Арнетт</string> /   </dict> /   <dict> /    <key>name</key> /    <string>Уильям Фихтнер</string> /   </dict> /   <dict> /    <key>name</key> /    <string>Алан Ричсон</string> /   </dict> /   <dict> /    <key>name</key> /    <string>Ноэль Фишер</string> /   </dict> /   <dict> /    <key>name</key> /    <string>Пит Пложек</string> /   </dict> /   <dict> /    <key>name</key> /    <string>Джонни Ноксвил</string> /   </dict> /   <dict> /    <key>name</key> /    <string>Джереми Ховард</string> /   </dict> /   <dict> /    <key>name</key> /    <string>Дэнни Вудберн</string> /   </dict> /   <dict> /    <key>name</key> /    <string>Тони Шэлуб</string> /   </dict> /  </array> /  <key>directors</key> /  <array> /   <dict> /    <key>name</key> /    <string>Джонатан Либесман</string> /   </dict> /  </array> /  <key>producers</key> /  <array> /   <dict> /    <key>name</key> /    <string>Майкл Бэй</string> /   </dict> /   <dict> /    <key>name</key> /    <string>Йен Брайс</string> /   </dict> /   <dict> /    <key>name</key> /    <string>Эндрю Форм</string> /   </dict> /  </array> /  <key>screenwriters</key> /  <array> /   <dict> /    <key>name</key> /    <string>Джош Аппелбаум</string> /   </dict> /   <dict> /    <key>name</key> /    <string>Андре Немец</string> /   </dict> /   <dict> /    <key>name</key> /    <string>Ивэн Догерти</string> /   </dict> /  </array> /  <key>studio</key> /  <string>Paramount Pictures</string> / </dict> / </plist>
    Video #1
    ID                                       : 1
    Format                                   : AVC
    Format/Info                              : Advanced Video Codec
    Format profile                           : High@L4.0
    Format settings, CABAC                   : Yes
    Format settings, ReFrames                : 4 frames
    Codec ID                                 : avc1
    Codec ID/Info                            : Advanced Video Coding
    Duration                                 : 1h 41mn
    Bit rate mode                            : Variable
    Bit rate                                 : 8 000 Kbps
    Width                                    : 1 920 pixels
    Height                                   : 800 pixels
    Display aspect ratio                     : 2.40:1
    Frame rate mode                          : Variable
    Frame rate                               : 23.976 fps
    Minimum frame rate                       : 23.810 fps
    Maximum frame rate                       : 24.272 fps
    Color space                              : YUV
    Chroma subsampling                       : 4:2:0
    Bit depth                                : 8 bits
    Scan type                                : Progressive
    Bits/(Pixel*Frame)                       : 0.217
    Stream size                              : 5.65 GiB (86%)
    Writing library                          : x264 core 142 r2479 dd79a61
    Encoding settings                        : cabac=1 / ref=4 / deblock=1:0:0 / analyse=0x3:0x133 / me=umh / subme=10 / psy=1 / psy_rd=1.00:0.00 / mixed_ref=1 / me_range=32 / chroma_me=1 / trellis=2 / 8x8dct=1 / cqm=0 / deadzone=21,11 / fast_pskip=1 / chroma_qp_offset=-2 / threads=12 / lookahead_threads=1 / sliced_threads=0 / nr=0 / decimate=1 / interlaced=0 / bluray_compat=0 / constrained_intra=0 / bframes=4 / b_pyramid=2 / b_adapt=2 / b_bias=0 / direct=3 / weightb=1 / open_gop=0 / weightp=2 / keyint=240 / keyint_min=24 / scenecut=40 / intra_refresh=0 / rc_lookahead=40 / rc=2pass / mbtree=0 / bitrate=8000 / ratetol=1.0 / qcomp=0.60 / qpmin=0 / qpmax=69 / qpstep=4 / cplxblur=20.0 / qblur=0.5 / vbv_maxrate=25000 / vbv_bufsize=25000 / nal_hrd=none / filler=0 / ip_ratio=1.40 / pb_ratio=1.30 / aq=1:1.00
    Language                                 : English
    Encoded date                             : UTC 2014-11-28 08:31:33
    Tagged date                              : UTC 2014-11-28 08:33:27
    Color primaries                          : BT.709-5, BT.1361, IEC 61966-2-4, SMPTE RP177
    Transfer characteristics                 : BT.709-5, BT.1361
    Matrix coefficients                      : BT.709-5, BT.1361, IEC 61966-2-4 709, SMPTE RP177
    Video #2
    ID                                       : 10
    Format                                   : JPEG
    Codec ID                                 : jpeg
    Duration                                 : 1h 41mn
    Bit rate mode                            : Variable
    Bit rate                                 : 1 103 bps
    Width                                    : 640 pixels
    Height                                   : 266 pixels
    Display aspect ratio                     : 2.40:1
    Frame rate mode                          : Variable
    Frame rate                               : 0.003 fps
    Minimum frame rate                       : 0.002 fps
    Maximum frame rate                       : 0.006 fps
    Color space                              : YUV
    Chroma subsampling                       : 4:2:0
    Bit depth                                : 8 bits
    Compression mode                         : Lossy
    Bits/(Pixel*Frame)                       : 2.160
    Stream size                              : 808 KiB (0%)
    Language                                 : English
    Encoded date                             : UTC 2014-11-28 08:33:49
    Tagged date                              : UTC 2014-11-28 08:33:49
    Audio #1
    ID                                       : 2
    Format                                   : AAC
    Format/Info                              : Advanced Audio Codec
    Format profile                           : LC
    Codec ID                                 : 40
    Duration                                 : 1h 41mn
    Bit rate mode                            : Variable
    Bit rate                                 : 157 Kbps
    Maximum bit rate                         : 244 Kbps
    Channel(s)                               : 2 channels
    Channel positions                        : Front: L R
    Sampling rate                            : 48.0 KHz
    Compression mode                         : Lossy
    Stream size                              : 114 MiB (2%)
    Language                                 : Russian
    Encoded date                             : UTC 2014-11-28 08:31:33
    Tagged date                              : UTC 2014-11-28 08:33:40
    Audio #2
    ID                                       : 3
    Format                                   : AAC
    Format/Info                              : Advanced Audio Codec
    Format profile                           : LC
    Codec ID                                 : 40
    Duration                                 : 1h 41mn
    Bit rate mode                            : Variable
    Bit rate                                 : 158 Kbps
    Maximum bit rate                         : 255 Kbps
    Channel(s)                               : 2 channels
    Channel positions                        : Front: L R
    Sampling rate                            : 48.0 KHz
    Compression mode                         : Lossy
    Stream size                              : 114 MiB (2%)
    Language                                 : English
    Encoded date                             : UTC 2014-11-28 08:31:33
    Tagged date                              : UTC 2014-11-28 08:33:40
    Audio #3
    ID                                       : 4
    Format                                   : AC-3
    Format/Info                              : Audio Coding 3
    Mode extension                           : CM (complete main)
    Format settings, Endianness              : Big
    Codec ID                                 : ac-3
    Duration                                 : 1h 41mn
    Bit rate mode                            : Constant
    Bit rate                                 : 384 Kbps
    Channel(s)                               : 6 channels
    Channel positions                        : Front: L C R, Side: L R, LFE
    Sampling rate                            : 48.0 KHz
    Bit depth                                : 16 bits
    Compression mode                         : Lossy
    Stream size                              : 278 MiB (4%)
    Language                                 : Russian
    Encoded date                             : UTC 2014-11-28 08:31:33
    Tagged date                              : UTC 2014-11-28 08:33:36
    Audio #4
    ID                                       : 5
    Format                                   : AC-3
    Format/Info                              : Audio Coding 3
    Mode extension                           : CM (complete main)
    Format settings, Endianness              : Big
    Codec ID                                 : ac-3
    Duration                                 : 1h 41mn
    Bit rate mode                            : Constant
    Bit rate                                 : 640 Kbps
    Channel(s)                               : 6 channels
    Channel positions                        : Front: L C R, Side: L R, LFE
    Sampling rate                            : 48.0 KHz
    Bit depth                                : 16 bits
    Compression mode                         : Lossy
    Stream size                              : 464 MiB (7%)
    Language                                 : English
    Encoded date                             : UTC 2014-11-28 08:31:33
    Tagged date                              : UTC 2014-11-28 08:33:38
    Text #1
    ID                                       : 6
    Format                                   : Timed text
    Muxing mode                              : sbtl
    Codec ID                                 : tx3g
    Duration                                 : 1h 21mn
    Bit rate mode                            : Variable
    Bit rate                                 : 2 bps
    Stream size                              : 1.06 KiB (0%)
    Language                                 : Russian
    Encoded date                             : UTC 2014-11-28 08:31:33
    Tagged date                              : UTC 2014-11-28 08:31:33
    Text #2
    ID                                       : 7
    Format                                   : Timed text
    Muxing mode                              : sbtl
    Codec ID                                 : tx3g
    Duration                                 : 1h 34mn
    Bit rate mode                            : Variable
    Bit rate                                 : 101 bps
    Stream size                              : 69.9 KiB (0%)
    Language                                 : Russian
    Encoded date                             : UTC 2014-11-28 08:31:33
    Tagged date                              : UTC 2014-11-28 08:31:34
    Text #3
    ID                                       : 8
    Format                                   : Timed text
    Muxing mode                              : sbtl
    Codec ID                                 : tx3g
    Duration                                 : 1h 34mn
    Bit rate mode                            : Variable
    Bit rate                                 : 73 bps
    Stream size                              : 50.7 KiB (0%)
    Language                                 : English
    Encoded date                             : UTC 2014-11-28 08:31:33
    Tagged date                              : UTC 2014-11-28 08:31:34
    Text #4
    ID                                       : 9
    Format                                   : Apple text
    Codec ID                                 : text
    Duration                                 : 1h 41mn
    Bit rate mode                            : Variable
    Bit rate                                 : 1 bps
    Stream size                              : 423 Bytes (0%)
    Language                                 : English
    Encoded date                             : UTC 2014-11-28 08:33:40
    Tagged date                              : UTC 2014-11-28 08:33:40
    Menu
    00:00:00.000                             : Chapter 1
    00:02:42.454                             : Chapter 2
    00:06:00.652                             : Chapter 3
    00:11:51.753                             : Chapter 4
    00:16:01.919                             : Chapter 5
    00:22:03.030                             : Chapter 6
    00:28:22.993                             : Chapter 7
    00:34:01.998                             : Chapter 8
    00:38:04.115                             : Chapter 9
    00:42:10.194                             : Chapter 10
    00:48:36.497                             : Chapter 11
    00:55:46.176                             : Chapter 12
    01:00:44.349                             : Chapter 13
    01:07:46.813                             : Chapter 14
    01:15:30.568                             : Chapter 15
    01:24:10.879                             : Chapter 16
    01:30:17.120                             : Chapter 17
    01:34:13.648                             : Chapter 18

    x264 лог

    x264 [info]: frame I:1103  Avg QP:18.10  size:175375
    x264 [info]: frame P:51390 Avg QP:21.09  size: 63949
    x264 [info]: frame B:93233 Avg QP:23.03  size: 27799
    x264 [info]: consecutive B-frames: 11.0%  9.0% 21.6% 32.4% 26.0%
    x264 [info]: mb I  I16..4:  8.5% 81.0% 10.5%
    x264 [info]: mb P  I16..4:  3.1% 21.6%  1.9%  P16..4: 39.0% 15.6%  8.3%  0.2%  0.0%    skip:10.2%
    x264 [info]: mb B  I16..4:  0.3%  2.5%  0.2%  B16..8: 44.4%  9.6%  2.3%  direct: 7.2%  skip:33.4%  L0:42.1% L1:48.6% BI: 9.3%
    x264 [info]: 8x8 transform intra:81.4% inter:73.0%
    x264 [info]: direct mvs  spatial:98.0% temporal:2.0%
    x264 [info]: coded y,uvDC,uvAC intra: 80.7% 79.6% 51.9% inter: 31.2% 31.7% 6.8%
    x264 [info]: i16 v,h,dc,p: 33% 19% 10% 38%
    x264 [info]: i8 v,h,dc,ddl,ddr,vr,hd,vl,hu:  8%  9%  8% 10% 14% 13% 15% 11% 13%
    x264 [info]: i4 v,h,dc,ddl,ddr,vr,hd,vl,hu:  9% 10%  4%  8% 15% 14% 16% 10% 13%
    x264 [info]: i8c dc,h,v,p: 44% 22% 17% 17%
    x264 [info]: Weighted P-Frames: Y:2.7% UV:1.7%
    x264 [info]: ref P L0: 54.8% 13.8% 20.0%  8.6%  2.8%  0.1%
    x264 [info]: ref B L0: 85.2% 11.8%  3.0%
    x264 [info]: ref B L1: 93.4%  6.6%
    x264 [info]: kb/s:7991.57

    Скриншоты

    -

    Релиз подготовлен для просмотра на Apple TV, iPad, iPhone, iPod Touch.
    Для просмотра данного релиза на компьютере с ОС Windows рекомендуется использовать VLC media player
    Скачать .torrent

    Скачать торрент-файл бесплатно и на максимальной скорости!

    Как скачивать? · Что такое торрент? · Рейтинг и ограничения

    !ВНИМАНИЕ!
    Сайт не распространяет и не хранит электронные версии произведений, а занимается лишь лишь предоставлением доступа к создаваемому пользователями каталогу ссылок на торрент-файлы, которые содержат только списки хеш-сумм, убедительная просьба с жалобами обращаться напрямую к пользователю. Файлы для обмена на трекере предоставлены пользователями сайта, и администрация не несёт ответственности за их содержание. Просьба не заливать файлы, защищенные авторскими правами, а также файлы нелегального содержания!


    _________________
    [Профиль] [ЛС]
    Показать сообщения:    
    Ответить на тему

    Текущее время: Сегодня, в 14:20

    Часовой пояс: GMT + 2



    Вы не можете начинать темы
    Вы не можете отвечать на сообщения
    Вы не можете редактировать свои сообщения
    Вы не можете удалять свои сообщения
    Вы не можете голосовать в опросах
    Вы не можете прикреплять файлы к сообщениям
    Вы не можете скачивать файлы