BitTorrentTracker PerecTracker.org
BitTorrentTracker PerecTracker.org
    
Регистрация  ·  Вход
 
 · 
Забыли пароль?

  • [ATV3] Пряности и страсти / The Hundred-Foot Journey (Лассе Халльстрём / Lasse Hallström ) [2014, США, Драма, комедия, BDRip, HD (1080p)] DUB + Original + sub (rus, eng)

    Ответить на тему
     
    Автор Сообщение

    Flirldrerve

    Создавать темы 27-Окт-2015 05:20

           

    [Цитировать]

    Пряности и страсти / The Hundred-Foot Journey
    -
    7.637 / 10 7.40 / 10
    -Год выпуска: 2014
    Страна: США
    Жанр: Драма, комедия
    Продолжительность: 02:02:29
    Перевод: Профессиональный (дублированный) (Лицензия)
    Оригинальная аудиодорожка: Есть
    Cубтитры: Русские, Английские
    Режиссёр: Лассе Халльстрём
    Сценарий: Стивен Найт, Ричард Ч. Мораис
    Продюсер: Джульетт Блейк, Стивен Спилберг, Опра Уинфри
    Оператор: Линус Сандгрен
    Композитор: А.Р. Рахман
    Художник: Дэвид Гропмэн, Рави Шривастав, Пьер-Ив Геро
    Монтаж: Эндрю Мондшейн
    В ролях: Хелен Миррен, Ом Пури, Маниш Дайал, Шарлотта Ле Бон, Амит Шах, Фарзана Дуа Элахе, Диллон Митра, Ариа Пандья, Мишель Блан, Клеман Сибони
    Бюджет: $22 000 000
    Сборы в США: $54 203 391
    Сборы в мире: + $34 640 000 = $88 843 391
    Сборы в России: $632 206
    Мировая премьера: 7 августа 2014
    Премьера (РФ): 11 сентября 2014, «WDSSPR»
    Релиз на DVD: 9 декабря 2014. «Уолт Дисней Компани СНГ»
    Релиз на Blu-Ray: 9 декабря 2014, «Уолт Дисней Компани СНГ»
    Описание: Семья индийских эмигрантов, которых судьба забросила в маленький городок в Провансе, решает открыть кафе с восточной кухней… прямо напротив знаменитого на всю округу ресторана «Плакучая ива», бастиона французских кулинарных традиций, хозяйка которого, Мадам Малори, больше всего на свете гордится тем, что её заведение удостоено звезды в каталоге «Мишлен».
    Поначалу Мадам Малори не скрывает своей брезгливости шумными соседями и их экзотическими привычками, но постепенно война за клиентов между двумя ресторанами сменяется шатким перемирием, особенно, когда выясняется, что юный повар-эмигрант Хассан является обладателем совершенного вкуса, и рецепты французской кухни покоряются ему так же легко, как секреты индийских пряностей.-Качество исходника: HD Club, Пряности и страсти / The Hundred-Foot Journey (2014) 1080p BD-Remux
    Качество: BDRip
    Тип: HD (1080p)
    Контейнер: M4V
    Видео: H.264, 1920x800, 2.40:1, 8 000 Kbps, 23.976 fps
    Аудио 1: Русский/Профессиональный (дублированный) (Лицензия), AAC / 2.0 / 156 Kbps / 48.0 KHz
    Аудио 2: Английский/Оригинальная дорожка , AAC / 2.0 / 155 Kbps / 48.0 KHz
    Аудио 3: Русский/Профессиональный (дублированный) (Лицензия), AC-3 / 5.1 / 640 Kbps / 48.0 KHz
    Аудио 4: Английский/Оригинальная дорожка , AC-3 / 5.1 / 640 Kbps / 48.0 KHz
    Субтитры 1: Русские полные
    Субтитры 2: Английские полные
    -

    iTunes Meta Tags

    Sort Name: Hundred-Foot Journey
    XID: Apple:vendor_id:2014-771381
    contentID: 903607723
    Copyright: © 2014 DreamWorks II Distribution Co., LLC
    Screenwriters: Стивен Найт, Ричард Ч. Мораис
    Producers: Джульетт Блейк, Стивен Спилберг, Опра Уинфри
    Director: Лассе Халльстрём
    Cast: Хелен Миррен, Ом Пури, Маниш Дайал, Шарлотта Ле Бон, Амит Шах, Фарзана Дуа Элахе, Диллон Митра, Ариа Пандья, Мишель Блан, Клеман Сибони, Ирина Обрезкова
    Studio: DreamWorks Pictures
    Rating: 9
    Long Description: Семья индийских эмигрантов, которых судьба забросила в маленький городок в Провансе, решает открыть кафе с восточной кухней... прямо напротив знаменитого на всю округу ресторана "Плакучая ива", бастиона французских кулинарных традиций, хозяйка которого, Мадам Малори, больше всего на свете гордится тем, что её заведение удостоено звезды в каталоге "Мишлен".
    Поначалу Мадам Малори не скрывает своей брезгливости шумными соседями и их экзотическими привычками, но постепенно война за клиентов между двумя ресторанами сменяется шатким перемирием, особенно, когда выясняется, что юный повар-эмигрант Хассан является обладателем совершенного вкуса, и рецепты французской кухни покоряются ему так же легко, как секреты индийских пряностей.
    Description: Семья индийских эмигрантов, которых судьба забросила в маленький городок в Провансе, решает открыть кафе с восточной кухней...
    Release Date: 2014-08-07T08:00:00Z
    Genre: Drama
    Artist: Lasse Hallström
    Name: The Hundred-Foot Journey

    MediaInfo

    General
    Complete name                            : /Users/imac/HandBrake/The Hundred-Foot Journey (1080p HD).m4v
    Format                                   : MPEG-4
    Codec ID                                 : M4V
    File size                                : 8.21 GiB
    Duration                                 : 2h 2mn
    Overall bit rate mode                    : Variable
    Overall bit rate                         : 9 580 Kbps
    Movie name                               : The Hundred-Foot Journey
    Performer                                : Lasse Hallström
    Genre                                    : Drama
    Recorded date                            : UTC 2014-08-07 08:00:00
    Encoded date                             : UTC 2014-11-30 15:47:33
    Tagged date                              : UTC 2014-11-30 16:01:34
    Copyright                                : © 2014 DreamWorks II Distribution Co., LLC
    Cover                                    : Yes
    sonm                                     : Hundred-Foot Journey
    desc                                     : Семья индийских эмигрантов, которых судьба забросила в маленький городок в Провансе, решает открыть кафе с восточной кухней...
    ldes                                     : Семья индийских эмигрантов, которых судьба забросила в маленький городок в Провансе, решает открыть кафе с восточной кухней... прямо напротив знаменитого на всю округу ресторана "Плакучая ива", бастиона французских кулинарных традиций, хозяйка которого, Мадам Малори, больше всего на свете гордится тем, что её заведение удостоено звезды в каталоге "Мишлен". Поначалу Мадам Малори не скрывает своей брезгливости шумными соседями и их экзотическими привычками, но постепенно война за клиентов между двумя ресторанами сменяется шатким перемирием, особенно, когда выясняется, что юный повар-эмигрант Хассан является обладателем совершенного вкуса, и рецепты французской кухни покоряются ему так же легко, как секреты индийских пряностей.
    hdvd                                     : 2
    stik                                     : 9
    rtng                                     : 0
    cnID                                     : 903607723
    xid                                      : Apple:vendor_id:2014-771381
    iTunEXTC                                 : mpaa|PG|200|
    iTunMOVI                                 : <?xml version=\"1.0\" encoding=\"UTF-8\"?> / <!DOCTYPE plist PUBLIC \"-//Apple//DTD PLIST 1.0//EN\" \"http://anonym.to/?http://www.apple.com/DTDs/PropertyList-1.0.dtd\"> / <plist version=\"1.0\"> / <dict> /  <key>cast</key> /  <array> /   <dict> /    <key>name</key> /    <string>Хелен Миррен</string> /   </dict> /   <dict> /    <key>name</key> /    <string>Ом Пури</string> /   </dict> /   <dict> /    <key>name</key> /    <string>Маниш Дайал</string> /   </dict> /   <dict> /    <key>name</key> /    <string>Шарлотта Ле Бон</string> /   </dict> /   <dict> /    <key>name</key> /    <string>Амит Шах</string> /   </dict> /   <dict> /    <key>name</key> /    <string>Фарзана Дуа Элахе</string> /   </dict> /   <dict> /    <key>name</key> /    <string>Диллон Митра</string> /   </dict> /   <dict> /    <key>name</key> /    <string>Ариа Пандья</string> /   </dict> /   <dict> /    <key>name</key> /    <string>Мишель Блан</string> /   </dict> /   <dict> /    <key>name</key> /    <string>Клеман Сибони</string> /   </dict> /   <dict> /    <key>name</key> /    <string>Ирина Обрезкова</string> /   </dict> /  </array> /  <key>directors</key> /  <array> /   <dict> /    <key>name</key> /    <string>Лассе Халльстрём</string> /   </dict> /  </array> /  <key>producers</key> /  <array> /   <dict> /    <key>name</key> /    <string>Джульетт Блейк</string> /   </dict> /   <dict> /    <key>name</key> /    <string>Стивен Спилберг</string> /   </dict> /   <dict> /    <key>name</key> /    <string>Опра Уинфри</string> /   </dict> /  </array> /  <key>screenwriters</key> /  <array> /   <dict> /    <key>name</key> /    <string>Стивен Найт</string> /   </dict> /   <dict> /    <key>name</key> /    <string>Ричард Ч. Мораис</string> /   </dict> /  </array> /  <key>studio</key> /  <string>DreamWorks Pictures</string> / </dict> / </plist>
    Video #1
    ID                                       : 1
    Format                                   : AVC
    Format/Info                              : Advanced Video Codec
    Format profile                           : High@L4.0
    Format settings, CABAC                   : Yes
    Format settings, ReFrames                : 4 frames
    Codec ID                                 : avc1
    Codec ID/Info                            : Advanced Video Coding
    Duration                                 : 2h 2mn
    Bit rate mode                            : Variable
    Bit rate                                 : 8 000 Kbps
    Width                                    : 1 920 pixels
    Height                                   : 800 pixels
    Display aspect ratio                     : 2.40:1
    Frame rate mode                          : Variable
    Frame rate                               : 23.976 fps
    Minimum frame rate                       : 23.974 fps
    Maximum frame rate                       : 23.981 fps
    Color space                              : YUV
    Chroma subsampling                       : 4:2:0
    Bit depth                                : 8 bits
    Scan type                                : Progressive
    Bits/(Pixel*Frame)                       : 0.217
    Stream size                              : 6.84 GiB (83%)
    Writing library                          : x264 core 142 r2479 dd79a61
    Encoding settings                        : cabac=1 / ref=4 / deblock=1:0:0 / analyse=0x3:0x133 / me=umh / subme=10 / psy=1 / psy_rd=1.00:0.00 / mixed_ref=1 / me_range=32 / chroma_me=1 / trellis=2 / 8x8dct=1 / cqm=0 / deadzone=21,11 / fast_pskip=1 / chroma_qp_offset=-2 / threads=12 / lookahead_threads=1 / sliced_threads=0 / nr=0 / decimate=1 / interlaced=0 / bluray_compat=0 / constrained_intra=0 / bframes=4 / b_pyramid=2 / b_adapt=2 / b_bias=0 / direct=3 / weightb=1 / open_gop=0 / weightp=2 / keyint=240 / keyint_min=24 / scenecut=40 / intra_refresh=0 / rc_lookahead=40 / rc=2pass / mbtree=0 / bitrate=8000 / ratetol=1.0 / qcomp=0.60 / qpmin=0 / qpmax=69 / qpstep=4 / cplxblur=20.0 / qblur=0.5 / vbv_maxrate=25000 / vbv_bufsize=25000 / nal_hrd=none / filler=0 / ip_ratio=1.40 / pb_ratio=1.30 / aq=1:1.00
    Language                                 : English
    Encoded date                             : UTC 2014-11-30 15:47:33
    Tagged date                              : UTC 2014-11-30 15:54:49
    Color primaries                          : BT.709-5, BT.1361, IEC 61966-2-4, SMPTE RP177
    Transfer characteristics                 : BT.709-5, BT.1361
    Matrix coefficients                      : BT.709-5, BT.1361, IEC 61966-2-4 709, SMPTE RP177
    Video #2
    ID                                       : 9
    Format                                   : JPEG
    Codec ID                                 : jpeg
    Duration                                 : 2h 2mn
    Bit rate mode                            : Variable
    Bit rate                                 : 608 bps
    Width                                    : 640 pixels
    Height                                   : 266 pixels
    Display aspect ratio                     : 2.40:1
    Frame rate mode                          : Variable
    Frame rate                               : 0.002 fps
    Minimum frame rate                       : 0.002 fps
    Maximum frame rate                       : 0.005 fps
    Color space                              : YUV
    Chroma subsampling                       : 4:2:0
    Bit depth                                : 8 bits
    Compression mode                         : Lossy
    Bits/(Pixel*Frame)                       : 1.786
    Stream size                              : 668 KiB (0%)
    Language                                 : English
    Encoded date                             : UTC 2014-11-30 15:56:22
    Tagged date                              : UTC 2014-11-30 15:56:22
    Audio #1
    ID                                       : 2
    Format                                   : AAC
    Format/Info                              : Advanced Audio Codec
    Format profile                           : LC
    Codec ID                                 : 40
    Duration                                 : 2h 2mn
    Bit rate mode                            : Variable
    Bit rate                                 : 156 Kbps
    Maximum bit rate                         : 254 Kbps
    Channel(s)                               : 2 channels
    Channel positions                        : Front: L R
    Sampling rate                            : 48.0 KHz
    Compression mode                         : Lossy
    Stream size                              : 137 MiB (2%)
    Language                                 : Russian
    Encoded date                             : UTC 2014-11-30 15:47:33
    Tagged date                              : UTC 2014-11-30 15:55:08
    Audio #2
    ID                                       : 3
    Format                                   : AAC
    Format/Info                              : Advanced Audio Codec
    Format profile                           : LC
    Codec ID                                 : 40
    Duration                                 : 2h 2mn
    Bit rate mode                            : Variable
    Bit rate                                 : 155 Kbps
    Maximum bit rate                         : 254 Kbps
    Channel(s)                               : 2 channels
    Channel positions                        : Front: L R
    Sampling rate                            : 48.0 KHz
    Compression mode                         : Lossy
    Stream size                              : 136 MiB (2%)
    Language                                 : English
    Encoded date                             : UTC 2014-11-30 15:47:33
    Tagged date                              : UTC 2014-11-30 15:55:30
    Audio #3
    ID                                       : 4
    Format                                   : AC-3
    Format/Info                              : Audio Coding 3
    Mode extension                           : CM (complete main)
    Format settings, Endianness              : Big
    Codec ID                                 : ac-3
    Duration                                 : 2h 2mn
    Bit rate mode                            : Constant
    Bit rate                                 : 640 Kbps
    Channel(s)                               : 6 channels
    Channel positions                        : Front: L C R, Side: L R, LFE
    Sampling rate                            : 48.0 KHz
    Bit depth                                : 16 bits
    Compression mode                         : Lossy
    Stream size                              : 561 MiB (7%)
    Language                                 : Russian
    Encoded date                             : UTC 2014-11-30 15:47:33
    Tagged date                              : UTC 2014-11-30 15:55:05
    Audio #4
    ID                                       : 5
    Format                                   : AC-3
    Format/Info                              : Audio Coding 3
    Mode extension                           : CM (complete main)
    Format settings, Endianness              : Big
    Codec ID                                 : ac-3
    Duration                                 : 2h 2mn
    Bit rate mode                            : Constant
    Bit rate                                 : 640 Kbps
    Channel(s)                               : 6 channels
    Channel positions                        : Front: L C R, Side: L R, LFE
    Sampling rate                            : 48.0 KHz
    Bit depth                                : 16 bits
    Compression mode                         : Lossy
    Stream size                              : 561 MiB (7%)
    Language                                 : English
    Encoded date                             : UTC 2014-11-30 15:47:33
    Tagged date                              : UTC 2014-11-30 15:55:05
    Text #1
    ID                                       : 6
    Format                                   : Timed text
    Muxing mode                              : sbtl
    Codec ID                                 : tx3g
    Duration                                 : 1h 55mn
    Bit rate mode                            : Variable
    Bit rate                                 : 74 bps
    Stream size                              : 63.2 KiB (0%)
    Language                                 : Russian
    Encoded date                             : UTC 2014-11-30 15:47:33
    Tagged date                              : UTC 2014-11-30 15:47:33
    Text #2
    ID                                       : 7
    Format                                   : Timed text
    Muxing mode                              : sbtl
    Codec ID                                 : tx3g
    Duration                                 : 1h 54mn
    Bit rate mode                            : Variable
    Bit rate                                 : 58 bps
    Stream size                              : 48.8 KiB (0%)
    Language                                 : English
    Encoded date                             : UTC 2014-11-30 15:47:33
    Tagged date                              : UTC 2014-11-30 15:47:33
    Text #3
    ID                                       : 8
    Format                                   : Apple text
    Codec ID                                 : text
    Duration                                 : 2h 2mn
    Bit rate mode                            : Variable
    Bit rate                                 : 0 bps
    Stream size                              : 423 Bytes (0%)
    Language                                 : English
    Encoded date                             : UTC 2014-11-30 15:55:30
    Tagged date                              : UTC 2014-11-30 15:55:30
    Menu
    00:00:00.000                             : Chapter 1
    00:07:36.873                             : Chapter 2
    00:15:05.238                             : Chapter 3
    00:20:55.963                             : Chapter 4
    00:27:01.995                             : Chapter 5
    00:33:27.547                             : Chapter 6
    00:41:12.095                             : Chapter 7
    00:48:12.348                             : Chapter 8
    00:55:12.017                             : Chapter 9
    01:02:18.610                             : Chapter 10
    01:08:58.760                             : Chapter 11
    01:19:09.036                             : Chapter 12
    01:28:00.817                             : Chapter 13
    01:35:53.247                             : Chapter 14
    01:41:47.476                             : Chapter 15
    01:47:40.245                             : Chapter 16
    01:51:18.088                             : Chapter 17
    01:54:39.331                             : Chapter 18

    x264 лог

    x264 [info]: frame I:1199  Avg QP:15.87  size:161876
    x264 [info]: frame P:45174 Avg QP:18.32  size: 69417
    x264 [info]: frame B:129848 Avg QP:20.54  size: 30880
    x264 [info]: consecutive B-frames:  2.1%  3.6% 14.0% 34.2% 46.1%
    x264 [info]: mb I  I16..4:  8.2% 86.3%  5.6%
    x264 [info]: mb P  I16..4:  1.9% 17.6%  0.7%  P16..4: 39.2% 19.5% 10.7%  0.1%  0.0%    skip:10.2%
    x264 [info]: mb B  I16..4:  0.2%  1.7%  0.0%  B16..8: 44.5%  9.9%  2.6%  direct: 6.6%  skip:34.5%  L0:44.9% L1:48.1% BI: 7.0%
    x264 [info]: 8x8 transform intra:87.3% inter:70.9%
    x264 [info]: direct mvs  spatial:97.8% temporal:2.2%
    x264 [info]: coded y,uvDC,uvAC intra: 83.0% 79.2% 49.0% inter: 32.2% 26.7% 2.6%
    x264 [info]: i16 v,h,dc,p: 54% 15% 10% 21%
    x264 [info]: i8 v,h,dc,ddl,ddr,vr,hd,vl,hu:  8%  7% 13% 10% 14% 12% 13% 11% 13%
    x264 [info]: i4 v,h,dc,ddl,ddr,vr,hd,vl,hu:  9%  8%  8% 10% 15% 14% 14% 11% 13%
    x264 [info]: i8c dc,h,v,p: 46% 21% 19% 15%
    x264 [info]: Weighted P-Frames: Y:2.4% UV:1.4%
    x264 [info]: ref P L0: 48.1%  9.2% 28.7% 11.9%  2.0%  0.0%
    x264 [info]: ref B L0: 80.2% 15.5%  4.3%
    x264 [info]: ref B L1: 89.8% 10.2%
    x264 [info]: kb/s:7988.87

    Скриншоты

    -

    Релиз подготовлен для просмотра на Apple TV, iPad, iPhone, iPod Touch.
    Для просмотра данного релиза на компьютере с ОС Windows рекомендуется использовать VLC media player
    Скачать .torrent

    Скачать торрент-файл бесплатно и на максимальной скорости!

    Как скачивать? · Что такое торрент? · Рейтинг и ограничения

    !ВНИМАНИЕ!
    Сайт не распространяет и не хранит электронные версии произведений, а занимается лишь лишь предоставлением доступа к создаваемому пользователями каталогу ссылок на торрент-файлы, которые содержат только списки хеш-сумм, убедительная просьба с жалобами обращаться напрямую к пользователю. Файлы для обмена на трекере предоставлены пользователями сайта, и администрация не несёт ответственности за их содержание. Просьба не заливать файлы, защищенные авторскими правами, а также файлы нелегального содержания!


    _________________
    [Профиль] [ЛС]
    Показать сообщения:    
    Ответить на тему

    Текущее время: Сегодня, в 06:22

    Часовой пояс: GMT + 2



    Вы не можете начинать темы
    Вы не можете отвечать на сообщения
    Вы не можете редактировать свои сообщения
    Вы не можете удалять свои сообщения
    Вы не можете голосовать в опросах
    Вы не можете прикреплять файлы к сообщениям
    Вы не можете скачивать файлы